<?xml version="1.0" encoding="UTF-8" standalone="no"?>
<svg
   xmlns:dc="http://purl.org/dc/elements/1.1/"
   xmlns:cc="http://web.resource.org/cc/"
   xmlns:rdf="http://www.w3.org/1999/02/22-rdf-syntax-ns#"
   xmlns:svg="http://www.w3.org/2000/svg"
   xmlns="http://www.w3.org/2000/svg"
   xmlns:sodipodi="http://inkscape.sourceforge.net/DTD/sodipodi-0.dtd"
   xmlns:inkscape="http://www.inkscape.org/namespaces/inkscape"
   version="1.0"
   width="154.57001mm"
   height="28.9mm"
   id="svg2"
   sodipodi:version="0.32"
   inkscape:version="0.43"
   sodipodi:docname="nokia.svg"
   sodipodi:docbase="/home/d135-1r43/blog/microsoft">
  <metadata
     id="metadata1096">
    <rdf:RDF>
      <cc:Work
         rdf:about="">
        <dc:format>image/svg+xml</dc:format>
        <dc:type
           rdf:resource="http://purl.org/dc/dcmitype/StillImage" />
      </cc:Work>
    </rdf:RDF>
  </metadata>
  <sodipodi:namedview
     inkscape:window-height="1002"
     inkscape:window-width="1278"
     inkscape:pageshadow="2"
     inkscape:pageopacity="0.0"
     borderopacity="1.0"
     bordercolor="#666666"
     pagecolor="#ffffff"
     id="base"
     inkscape:zoom="13.669656"
     inkscape:cx="504.24958"
     inkscape:cy="54.876689"
     inkscape:window-x="0"
     inkscape:window-y="0"
     inkscape:current-layer="svg2" />
  <defs
     id="defs4">
    <font
       id="Emmentaler-20"
       horiz-adv-x="250">
      <font-face
         font-family="Emmentaler"
         font-weight="400"
         font-stretch="normal"
         units-per-em="1000"
         panose-1="2 0 5 3 0 0 0 0 0 0"
         ascent="800"
         descent="-200"
         x-height="265"
         cap-height="-1e+10"
         bbox="-515.998 -1324.25 799.788 1249.29"
         underline-thickness="50"
         underline-position="-100"
         unicode-range="U+0020-U+E266"
         id="font-face7" />
      <missing-glyph
         id="missing-glyph9" />
      <glyph
         glyph-name="rests.0"
         unicode=""
         horiz-adv-x="375"
         d="M3 -3l3 3h182h182l2 -3l3 -2v-73v-72l-3 -3l-3 -3h-182l-182 1l-2 2l-2 2l-1 73v72z"
         id="glyph11" />
      <glyph
         glyph-name="rests.1"
         unicode=""
         horiz-adv-x="375"
         d="M3 153l3 3h182h182l2 -3l3 -2v-73v-72l-3 -3l-3 -3h-182l-182 1l-2 2l-2 2l-1 73v72z"
         id="glyph13" />
      <glyph
         glyph-name="rests.0o"
         unicode=""
         horiz-adv-x="375"
         d="M-139 25c3 1 59 1 327 1s324 0 327 -1c6 -2 11 -6 14 -12c2 -4 3 -6 3 -12c0 -7 -1 -9 -3 -13c-3 -6 -8 -10 -14 -12c-3 -1 -17 -1 -72 -1h-68v-63v-62l-3 -3l-3 -3h-182l-182 1l-2 2l-2 2l-1 63v63h-68c-54 0 -68 0 -71 1c-6 2 -11 6 -14 12c-2 4 -2 6 -2 13 c0 6 0 8 2 12c3 6 8 10 14 12z"
         id="glyph15" />
      <glyph
         glyph-name="rests.1o"
         unicode=""
         horiz-adv-x="375"
         d="M3 153l3 3h182h182l2 -3l3 -2v-63v-62h68c55 0 69 0 72 -1c6 -2 11 -6 14 -12c2 -4 3 -6 3 -12c0 -7 -1 -9 -3 -13c-3 -6 -8 -10 -14 -12c-5 -2 -649 -2 -654 0c-6 2 -11 6 -14 12c-2 4 -2 6 -2 13c0 6 0 8 2 12c3 6 8 10 14 12c3 1 17 1 71 1h68v62v62z"
         id="glyph17" />
      <glyph
         glyph-name="rests.M3"
         unicode=""
         horiz-adv-x="450"
         d="M3 247l3 3h69h70l2 -3l3 -2v-245v-244l-3 -3l-3 -3h-69l-70 1l-2 2l-2 2l-1 245v244zM303 247l3 3h69h70l2 -3l3 -2v-245v-244l-3 -3l-3 -3h-69l-70 1l-2 2l-2 2l-1 245v244z"
         id="glyph19" />
      <glyph
         glyph-name="rests.M2"
         unicode=""
         horiz-adv-x="150"
         d="M3 247l3 3h69h70l2 -3l3 -2v-245v-244l-3 -3l-3 -3h-69l-70 1l-2 2l-2 2l-1 245v244z"
         id="glyph21" />
      <glyph
         glyph-name="rests.M1"
         unicode=""
         horiz-adv-x="150"
         d="M3 247l3 3h69h70l2 -3l3 -2v-120v-119l-3 -3l-3 -3h-69l-70 1l-2 2l-2 2l-1 120v119z"
         id="glyph23" />
      <glyph
         glyph-name="rests.2"
         unicode=""
         horiz-adv-x="237"
         d="M63 395c4 2 9 2 13 1c3 -1 23 -25 79 -91c41 -49 76 -92 79 -95c9 -11 11 -23 7 -36c-6 -16 -21 -33 -58 -64c-12 -9 -25 -20 -28 -24c-24 -22 -37 -56 -36 -88c2 -25 10 -45 28 -66c7 -9 58 -69 75 -89c9 -11 11 -16 7 -23c-3 -7 -13 -11 -20 -8c-2 1 -6 5 -8 7 c-27 27 -91 43 -120 30c-11 -5 -17 -13 -22 -28c-12 -33 -2 -95 19 -125c6 -7 6 -10 3 -14c-3 -2 -7 -3 -10 0c-2 1 -19 23 -28 37c-22 33 -44 77 -55 110c-12 37 -14 62 -6 79c3 7 7 11 14 14c21 10 83 -1 138 -24l4 -2l-3 3c-3 3 -43 50 -99 117c-41 48 -42 49 -41 63 c0 6 0 10 2 14c6 15 22 32 57 62c12 9 25 20 28 24c35 33 46 85 26 126c-5 12 -9 18 -32 44c-10 13 -20 25 -21 26c-3 7 1 17 8 20z"
         id="glyph25" />
      <glyph
         glyph-name="rests.2classical"
         unicode=""
         d="M168 204c8 1 18 1 27 -1c26 -5 46 -23 55 -48c2 -8 2 -10 2 -21c0 -15 -1 -23 -8 -35c-10 -20 -31 -36 -54 -42c-26 -7 -68 -1 -116 15l-12 4l59 -163l58 -163s-2 -1 -5 -3c-6 -4 -16 -7 -23 -7c-12 0 -27 7 -29 13c0 2 -28 97 -62 210l-60 207l2 3c5 6 15 8 21 3 c2 -2 5 -6 7 -9c9 -15 32 -42 44 -52c11 -9 17 -10 27 -6c9 5 12 10 18 37c5 20 9 31 17 39c8 9 20 16 32 19z"
         id="glyph27" />
      <glyph
         glyph-name="rests.3"
         unicode=""
         d="M55 203c16 4 34 1 48 -8c15 -10 22 -22 28 -49s9 -32 18 -37c10 -4 16 -3 27 6c12 10 35 37 44 52c2 3 5 7 7 9c6 5 16 3 21 -3l2 -3l-60 -207c-34 -113 -62 -208 -62 -210c-2 -6 -17 -13 -29 -13c-7 0 -17 3 -23 7c-3 2 -5 3 -5 3l58 163l59 163l-12 -4 c-48 -16 -90 -22 -115 -15c-24 6 -45 22 -55 42c-7 12 -8 20 -8 35c0 11 0 13 2 21c9 25 29 43 55 48z"
         id="glyph29" />
      <glyph
         glyph-name="rests.4"
         unicode=""
         horiz-adv-x="300"
         d="M110 203c16 4 34 1 48 -8c15 -10 22 -22 28 -49s9 -32 18 -37c10 -4 16 -2 27 7c8 8 22 25 32 41c12 18 12 18 16 20c7 3 15 2 19 -4l2 -3l-89 -333c-49 -183 -89 -334 -90 -335c0 -3 -8 -8 -16 -10c-8 -3 -16 -3 -24 0c-8 2 -16 8 -16 9c2 5 100 324 100 324 c0 1 -7 -1 -15 -4c-19 -6 -38 -11 -54 -14c-19 -3 -47 -3 -58 0c-24 6 -45 22 -55 42c-7 12 -8 20 -8 35c0 11 0 13 2 21c6 15 16 29 29 38c28 18 64 15 85 -8c8 -8 12 -19 17 -39c6 -27 9 -32 18 -37c11 -5 18 -2 32 12c15 15 32 39 37 52c2 5 47 151 47 152s-6 -1 -13 -4 c-48 -16 -88 -21 -113 -14c-24 6 -45 22 -55 42c-7 12 -8 20 -8 35c0 11 0 13 2 21c9 25 29 43 55 48z"
         id="glyph31" />
      <glyph
         glyph-name="rests.5"
         unicode=""
         horiz-adv-x="325"
         d="M140 453c16 4 34 1 48 -8c15 -10 22 -22 28 -49s9 -32 18 -37c8 -3 13 -3 19 1c9 7 25 28 39 52c7 12 10 15 17 16c6 0 11 -2 14 -6c2 -3 2 -4 -105 -460c-60 -252 -108 -459 -109 -460c-1 -5 -17 -12 -28 -12s-29 8 -28 12c1 2 85 318 86 322v3l-13 -5 c-21 -6 -40 -12 -58 -15c-13 -2 -18 -2 -34 -2c-22 0 -28 1 -44 9c-22 10 -36 27 -43 49c-2 6 -2 10 -2 21s0 13 2 21c6 15 16 29 29 38c28 18 64 15 85 -8c8 -8 12 -19 17 -39c6 -27 9 -32 18 -37c11 -4 18 -2 31 11c12 12 28 33 36 50c2 3 42 155 42 156c0 0 -7 -2 -16 -5 c-19 -6 -38 -11 -54 -14c-19 -3 -47 -3 -58 0c-24 6 -45 22 -55 42c-7 12 -8 20 -8 35c0 11 0 13 2 21c6 15 16 29 29 38c28 18 64 15 85 -8c8 -8 12 -19 17 -39c6 -27 9 -32 18 -37c10 -4 16 -2 26 7c11 10 28 33 36 48c2 6 8 25 23 84c12 42 21 77 20 77c0 0 -7 -2 -16 -5 c-35 -11 -57 -15 -83 -15c-21 0 -28 1 -43 9c-22 10 -36 27 -43 49c-2 6 -2 10 -2 21s0 13 2 21c9 25 29 43 55 48z"
         id="glyph33" />
      <glyph
         glyph-name="rests.6"
         unicode=""
         horiz-adv-x="350"
         d="M169 453c16 4 34 1 48 -8c15 -10 22 -22 28 -49s9 -32 18 -37c8 -3 13 -3 18 1c9 7 22 25 35 50c9 17 11 19 20 19c6 0 10 -2 13 -7c1 -2 -12 -68 -115 -582c-65 -319 -118 -582 -118 -585c-1 -5 -2 -6 -6 -8c-6 -4 -16 -7 -23 -7s-17 3 -23 7c-4 2 -5 3 -5 5 c3 10 73 324 73 325c0 0 -4 -1 -10 -3c-49 -17 -99 -24 -125 -17c-24 6 -45 22 -55 42c-7 12 -8 20 -8 35c0 11 0 13 2 21c6 15 16 29 29 38c28 18 64 15 85 -8c8 -8 12 -19 17 -39c6 -27 9 -32 18 -37c10 -4 17 -2 27 7c12 11 30 35 38 52c5 9 6 14 21 84c9 41 17 74 17 75 c0 0 -7 -2 -14 -5c-49 -16 -92 -22 -118 -15c-24 6 -45 22 -55 42c-7 12 -8 20 -8 35c0 11 0 13 2 21c6 15 16 29 29 38c28 18 64 15 85 -8c8 -8 12 -19 17 -39c6 -27 9 -32 18 -37c11 -4 17 -2 30 10c12 13 28 38 34 51c2 5 36 155 36 156c-1 0 -7 -2 -16 -5 c-19 -6 -38 -11 -54 -14c-19 -3 -47 -3 -58 0c-24 6 -45 22 -55 42c-7 12 -8 20 -8 35c0 11 0 13 2 21c6 15 16 29 29 38c28 18 64 15 85 -8c8 -8 12 -19 17 -39c6 -27 9 -32 18 -37c7 -3 12 -3 18 1c11 7 27 29 38 52c5 9 6 13 22 83c9 40 16 75 17 77l1 4l-11 -4 c-17 -6 -39 -12 -55 -15c-12 -2 -18 -2 -33 -2c-22 0 -28 1 -44 9c-22 10 -36 27 -43 49c-2 6 -2 10 -2 21s0 13 2 21c9 25 29 43 55 48z"
         id="glyph35" />
      <glyph
         glyph-name="rests.7"
         unicode=""
         horiz-adv-x="375"
         d="M199 703c16 4 34 1 48 -8c15 -10 22 -22 28 -49s9 -32 18 -37c7 -2 12 -3 17 0c7 4 19 23 31 49c8 18 10 20 18 21c6 0 11 -2 14 -6l2 -3l-118 -707c-65 -389 -118 -709 -119 -710c-1 -6 -16 -13 -28 -13c-7 0 -17 3 -23 7c-5 3 -5 3 -5 6c1 1 14 74 31 162 c16 87 29 160 30 161v3l-17 -6c-52 -17 -97 -23 -123 -16c-24 6 -45 22 -55 42c-7 12 -8 20 -8 35c0 11 0 13 2 21c6 15 16 29 29 38c28 18 64 15 85 -8c8 -8 12 -19 17 -39c6 -27 9 -32 18 -37c10 -4 17 -2 28 8c13 11 29 33 38 51l4 10l14 74l14 75s-7 -2 -16 -5 c-50 -16 -93 -22 -119 -15c-24 6 -45 22 -55 42c-7 12 -8 20 -8 35c0 11 0 13 2 21c6 15 16 29 29 38c28 18 64 15 85 -8c8 -8 12 -19 17 -39c6 -27 9 -32 18 -37c7 -3 12 -3 19 1c9 5 24 24 36 44c10 18 10 17 24 97c8 40 14 74 14 75c0 0 -5 -1 -13 -4 c-21 -6 -40 -12 -58 -15c-13 -2 -18 -2 -34 -2c-22 0 -28 1 -44 9c-22 10 -36 27 -43 49c-2 6 -2 10 -2 21s0 13 2 21c6 15 16 29 29 38c28 18 64 15 85 -8c8 -8 12 -19 17 -39c6 -27 9 -32 18 -37c12 -5 20 -1 35 19c8 9 15 21 21 35l5 10l14 76l15 77c-1 0 -6 -2 -14 -4 c-47 -16 -88 -22 -113 -15c-24 6 -45 22 -55 42c-7 12 -8 20 -8 35c0 11 0 13 2 21c6 15 16 29 29 38c28 18 64 15 85 -8c8 -8 12 -19 17 -39c6 -27 9 -32 18 -37c7 -3 13 -3 18 1c10 7 26 31 35 52c3 8 5 18 18 86c7 42 14 77 14 77c-1 0 -7 -2 -16 -5 c-34 -11 -56 -15 -81 -15c-22 0 -28 1 -44 9c-22 10 -36 27 -43 49c-2 6 -2 10 -2 21s0 13 2 21c9 25 29 43 55 48z"
         id="glyph37" />
      <glyph
         glyph-name="accidentals.2"
         unicode=""
         horiz-adv-x="275"
         d="M190 373c9 5 21 0 25 -9c2 -4 2 -9 2 -75c0 -38 0 -70 1 -70l16 7c8 3 17 7 20 7c8 1 16 -4 19 -11c2 -4 2 -8 2 -39c0 -38 0 -39 -6 -45c-1 -2 -11 -7 -27 -14l-25 -10v-79c0 -44 0 -79 1 -79l16 7c8 3 17 7 20 7c8 1 16 -4 19 -11c2 -4 2 -8 2 -39c0 -38 0 -39 -6 -45 c-1 -2 -11 -7 -27 -14l-25 -10v-83c0 -79 0 -84 -2 -87c-7 -15 -27 -16 -35 -1c-1 2 -2 10 -2 78v76l-41 -17l-40 -17v-80c0 -69 0 -80 -2 -83c-6 -16 -29 -16 -35 0c-2 3 -2 13 -2 74c0 39 0 71 -1 71l-16 -7c-8 -3 -17 -7 -20 -7c-8 -1 -16 4 -19 11c-2 4 -2 8 -2 39 c0 38 0 39 6 45c1 2 11 7 27 14l25 10v79c0 44 0 79 -1 79l-16 -7c-8 -3 -17 -7 -20 -7c-8 -1 -16 4 -19 11c-2 4 -2 8 -2 39c0 38 0 39 6 45c1 2 11 7 27 14l25 10v83c0 72 0 83 2 86c6 15 27 16 35 2c1 -3 2 -11 2 -79l1 -75l40 17l40 18v78c0 69 0 80 2 83c2 5 5 8 10 10 zM178 18v79l-41 -17l-40 -17v-80c0 -77 0 -79 2 -78c1 0 19 8 40 17l39 17v79z"
         id="glyph39" />
      <glyph
         glyph-name="accidentals.1"
         unicode=""
         horiz-adv-x="175"
         d="M80 335c9 5 21 0 25 -9c2 -4 2 -8 2 -64v-60l20 15c21 16 24 17 32 16c5 -1 12 -6 14 -11c2 -4 2 -7 2 -40c0 -34 0 -35 -2 -39s-7 -8 -34 -28l-32 -24v-76v-76l20 15c21 16 24 17 32 16c5 -1 12 -6 14 -11c2 -4 2 -7 2 -40c0 -34 0 -35 -2 -39s-7 -8 -34 -28l-32 -24 v-75c0 -70 0 -75 -2 -78c-7 -16 -28 -16 -35 0c-2 3 -2 7 -2 64v60l-20 -15c-21 -16 -24 -17 -32 -16c-5 1 -12 6 -14 11c-2 4 -2 7 -2 40c0 34 0 35 2 39s7 8 34 28l32 24v76v76l-20 -15c-21 -16 -24 -17 -32 -16c-5 1 -12 6 -14 11c-2 4 -2 7 -2 40c0 34 0 35 2 39 s7 8 34 28l32 24v74c0 65 0 75 2 78c2 5 5 8 10 10z"
         id="glyph41" />
      <glyph
         glyph-name="accidentals.3"
         unicode=""
         horiz-adv-x="400"
         d="M306 373c9 5 21 0 25 -9c2 -4 2 -9 2 -74v-70l23 7c12 3 24 6 26 6c7 0 14 -5 17 -11c2 -4 2 -8 2 -39c0 -29 0 -36 -2 -39c-1 -4 -4 -8 -8 -9c-2 -2 -56 -17 -57 -17s-1 -36 -1 -80v-81l23 7c12 3 24 6 26 6c7 0 14 -5 17 -11c2 -4 2 -8 2 -39c0 -29 0 -36 -2 -39 c-1 -4 -4 -8 -8 -9c-2 -2 -56 -17 -57 -17s-1 -35 -1 -79c0 -74 0 -79 -2 -82c-7 -15 -27 -16 -35 -1c-1 2 -2 10 -2 77v74l-37 -11l-36 -10l-1 -78c0 -70 -1 -78 -2 -80c-8 -15 -29 -14 -35 1c-2 3 -2 13 -2 75c0 67 0 71 -2 71c-1 -1 -17 -5 -37 -11l-35 -9v-76 c0 -65 0 -76 -2 -79c-6 -16 -29 -16 -35 0c-2 3 -2 13 -2 74v70l-23 -7c-12 -3 -24 -6 -26 -6c-7 0 -14 5 -17 12c-2 3 -2 7 -2 38c0 29 0 36 2 39c1 4 4 8 8 9c2 2 56 17 57 17s1 36 1 80v81l-23 -7c-12 -3 -24 -6 -26 -6c-7 0 -14 5 -17 12c-2 3 -2 7 -2 38 c0 29 0 36 2 39c1 4 4 8 8 9c2 2 56 17 57 17s1 35 1 78c0 68 0 79 2 82c6 15 27 16 35 2c1 -3 2 -11 2 -77l1 -74l36 11l37 10v78c0 70 1 78 2 81c8 14 28 13 35 -1c2 -4 2 -9 2 -76s0 -71 2 -71c1 1 17 5 37 11l35 9v75c0 66 0 76 2 79c2 5 5 8 10 10zM294 27v80 s-17 -5 -37 -10l-36 -11l-1 -80c0 -76 0 -80 2 -80c1 1 17 5 37 11l35 9v81zM181 -5c0 64 0 80 -1 80s-18 -5 -37 -10l-36 -10v-81v-80l7 2c3 1 20 6 37 10l30 9v80z"
         id="glyph43" />
      <glyph
         glyph-name="accidentals.0"
         unicode=""
         horiz-adv-x="167"
         d="M6 381c10 2 22 1 32 -3l5 -2v-26c0 -15 0 -56 -1 -92s-1 -65 -1 -66c1 0 25 4 54 10c37 7 55 10 57 10c6 -1 10 -5 13 -10l2 -4l3 -266c2 -147 4 -276 4 -287v-21l-5 -2c-13 -5 -27 -5 -40 0l-5 2v26c0 15 0 56 1 92s1 65 1 66c-1 0 -25 -4 -54 -10 c-37 -7 -55 -10 -57 -10c-6 1 -10 5 -13 10l-2 5l-3 265c-2 147 -4 276 -4 287v21l4 1c2 1 6 3 9 4zM130 110c0 1 0 2 -1 2c-2 0 -88 -17 -89 -17c0 -1 -3 -206 -3 -207c1 0 89 17 90 17c0 1 3 161 3 205z"
         id="glyph45" />
      <glyph
         glyph-name="accidentals.M2"
         unicode=""
         horiz-adv-x="200"
         d="M-12 463c11 2 26 1 35 -4c3 -1 5 -2 5 -2c0 -1 -6 -284 -7 -321v-24l5 4c21 17 50 28 79 30c26 1 46 -7 64 -25c9 -9 15 -17 20 -28c14 -31 14 -65 1 -93c-7 -14 -16 -26 -30 -40s-27 -25 -59 -48c-45 -33 -50 -38 -62 -53c-5 -6 -10 -13 -12 -14c-5 -5 -13 -8 -18 -8 c-6 0 -14 4 -18 9c-6 7 -6 -12 -11 288c-3 151 -6 285 -7 299v24l5 2c3 1 7 3 10 4zM96 100c-5 3 -8 3 -14 4c-9 0 -13 -1 -21 -5c-16 -8 -28 -26 -31 -48c0 -4 -1 -27 -2 -53c0 -44 0 -69 3 -92l1 -7l13 11c16 14 38 36 47 48c13 17 24 37 28 55c2 7 2 11 2 25 c0 15 0 18 -2 26c-5 19 -13 30 -24 36z"
         id="glyph47" />
      <glyph
         glyph-name="accidentals.M1"
         unicode=""
         horiz-adv-x="200"
         d="M157 462c11 3 26 2 35 -3c3 -1 5 -2 5 -2c0 -1 -3 -135 -6 -299c-5 -251 -6 -299 -7 -303c-5 -15 -20 -22 -32 -16c-8 4 -11 7 -21 20c-12 15 -17 20 -61 53c-33 23 -46 34 -60 48s-23 26 -30 40c-13 28 -13 62 1 93c5 11 11 19 20 28c18 18 38 26 64 25 c29 -2 58 -13 79 -30l5 -4v24c-1 37 -7 320 -7 321c2 1 10 4 15 5zM107 100c-6 3 -8 3 -15 4c-21 1 -34 -13 -42 -40c-2 -8 -2 -11 -2 -26c0 -14 0 -18 2 -25c4 -18 15 -38 28 -55c9 -12 31 -34 48 -48l13 -11v7c3 23 3 48 3 92c-1 26 -2 49 -2 53c-2 16 -11 32 -21 41 c-2 2 -8 6 -12 8z"
         id="glyph49" />
      <glyph
         glyph-name="accidentals.M4"
         unicode=""
         horiz-adv-x="362"
         d="M-12 463c11 2 26 1 35 -4c3 -1 5 -2 5 -2c0 -1 -6 -283 -7 -321v-24l8 8c18 18 41 27 66 26c15 -1 28 -6 41 -15c3 -3 6 -5 6 -5s-2 73 -4 161c-1 88 -3 162 -3 165v5l6 2c11 5 22 6 34 3c5 -1 13 -4 15 -5c0 -1 -6 -284 -7 -321v-24l5 4c16 15 43 26 67 29 c22 3 38 0 56 -9c35 -18 57 -65 49 -108c-4 -25 -15 -45 -38 -68c-14 -15 -28 -26 -61 -50c-25 -18 -42 -31 -48 -36c-2 -2 -7 -9 -12 -15s-10 -13 -12 -14c-5 -5 -13 -8 -18 -8c-6 0 -14 4 -18 9c-6 7 -6 8 -7 67c-1 29 -1 54 -1 54c-1 0 -3 -3 -6 -7 c-9 -10 -25 -25 -54 -51c-37 -32 -40 -36 -49 -49c-4 -6 -8 -13 -10 -15c-4 -4 -12 -8 -17 -8c-6 0 -14 4 -18 9c-6 7 -6 -12 -11 288c-3 151 -6 285 -7 299v24l5 2c3 1 7 3 10 4zM72 101c-9 5 -23 3 -32 -4s-17 -24 -19 -42c-2 -14 -2 -119 0 -139c1 -9 2 -17 2 -18 s4 2 11 11c30 33 47 64 55 99c2 9 2 14 2 32c0 12 0 23 -1 27c-3 17 -9 29 -18 34zM254 101c-11 5 -27 3 -38 -4c-10 -7 -18 -20 -22 -35c-2 -7 -2 -11 -3 -55c-1 -46 -1 -73 2 -101v-7l7 6c24 21 44 42 55 59c11 16 17 29 22 47c2 9 2 11 2 28c0 16 0 18 -2 28 c-5 18 -12 29 -23 34z"
         id="glyph51" />
      <glyph
         glyph-name="accidentals.M3"
         unicode=""
         horiz-adv-x="362"
         d="M-12 463c11 2 23 1 34 -4l6 -2v-23c-2 -51 -4 -183 -4 -184c1 0 112 63 114 64c0 1 -1 31 -2 68c0 37 -1 69 -1 71c0 4 0 4 6 6c14 7 29 7 43 0l6 -2v-22c-1 -12 -1 -37 -2 -57v-35l39 22l38 23h8c6 0 8 -1 12 -3c9 -5 14 -15 13 -25c-1 -5 -3 -9 -7 -14 c-1 -2 -21 -14 -53 -32c-39 -23 -51 -30 -51 -31c-1 -2 -1 -32 -2 -67c-1 -36 -1 -74 -2 -85v-19l5 4c16 15 43 26 67 29c22 3 38 0 56 -9c35 -18 57 -65 49 -108c-4 -25 -15 -45 -38 -68c-14 -15 -28 -26 -61 -50c-25 -18 -42 -31 -48 -36c-2 -2 -7 -9 -12 -15 s-10 -13 -12 -14c-5 -5 -13 -8 -18 -8c-6 0 -14 4 -18 9c-6 7 -6 8 -7 67c-1 29 -1 54 -1 54c-1 0 -3 -3 -6 -7c-9 -10 -25 -25 -54 -51c-37 -32 -40 -36 -49 -49c-4 -6 -8 -13 -10 -15c-4 -4 -12 -8 -17 -8c-6 0 -14 4 -18 9c-6 7 -6 -1 -9 163c-2 82 -3 151 -3 153v4 l-45 -26c-33 -19 -46 -26 -50 -27c-10 -1 -20 3 -25 12c-3 5 -3 6 -3 13c0 6 0 8 2 12c2 2 4 5 5 7c1 1 27 16 58 33c31 18 56 32 56 33c0 0 0 51 -2 113c-1 61 -2 114 -2 116c0 5 0 5 5 7c3 1 7 3 10 4zM139 252c0 3 0 5 -1 5l-57 -33l-57 -33l-1 -5c0 -2 -1 -20 -1 -39 l-1 -35l8 8c18 18 41 27 66 26c15 -1 28 -6 41 -15c3 -3 6 -5 6 -5s-1 28 -2 61c0 33 -1 62 -1 65zM72 101c-9 5 -23 3 -32 -4s-17 -24 -19 -42c-2 -14 -2 -119 0 -139c1 -9 2 -17 2 -18s4 2 11 11c30 33 47 64 55 99c2 9 2 14 2 32c0 12 0 23 -1 27c-3 17 -9 29 -18 34z M254 101c-11 5 -27 3 -38 -4c-10 -7 -18 -20 -22 -35c-2 -7 -2 -11 -3 -55c-1 -46 -1 -73 2 -101v-7l7 6c24 21 44 42 55 59c11 16 17 29 22 47c2 9 2 11 2 28c0 16 0 18 -2 28c-5 18 -12 29 -23 34z"
         id="glyph53" />
      <glyph
         glyph-name="accidentals.4"
         unicode=""
         d="M-6 133c1 1 3 2 4 2s22 -2 46 -5c30 -3 46 -5 48 -6c5 -2 6 -6 6 -23c1 -30 9 -54 23 -69l4 -4l4 4c14 15 22 39 23 69c0 17 1 21 6 23c4 3 93 12 97 10c1 0 3 -2 4 -3c1 -3 1 -5 -4 -49c-2 -26 -5 -47 -5 -49c-2 -4 -5 -5 -17 -6c-33 -1 -53 -7 -70 -18 c-3 -2 -7 -5 -8 -6l-2 -3l2 -3c1 -1 5 -4 8 -6c16 -11 34 -16 64 -18c18 -1 21 -2 23 -6c0 -2 3 -23 5 -49c5 -44 5 -46 4 -49c-1 -1 -3 -3 -4 -3c-4 -2 -93 7 -97 10c-5 2 -6 6 -6 23c-1 30 -9 54 -23 69l-4 5l-4 -5c-14 -15 -22 -39 -23 -69c0 -17 -1 -21 -6 -23 c-4 -3 -93 -12 -97 -10c-1 0 -3 2 -4 3c-1 3 -1 5 4 49c2 26 5 47 5 49c2 4 5 5 23 6c30 2 48 7 64 18c3 2 7 5 8 6l2 3l-2 3c-1 1 -5 4 -8 6c-17 11 -37 17 -69 18c-13 1 -16 2 -18 6c-1 4 -10 94 -10 96c1 1 2 3 4 4z"
         id="glyph55" />
      <glyph
         glyph-name="accidentals.rightparen"
         unicode=""
         horiz-adv-x="150"
         d="M43 261c2 1 5 2 7 2c5 0 9 -3 19 -20c38 -57 63 -115 74 -172c5 -28 6 -41 6 -71s-1 -43 -6 -71c-11 -57 -36 -115 -74 -172c-10 -17 -14 -20 -19 -20c-7 0 -13 6 -13 13c0 2 2 6 5 10c33 51 50 106 56 184c2 21 2 91 0 113c-6 77 -23 132 -56 183c-3 4 -5 8 -5 10 c0 4 3 9 6 11z"
         id="glyph57" />
      <glyph
         glyph-name="accidentals.leftparen"
         unicode=""
         horiz-adv-x="0"
         d="M-56 261c6 4 13 2 17 -4c3 -5 3 -9 -3 -17c-28 -44 -44 -89 -52 -149c-5 -31 -5 -48 -5 -91s0 -60 5 -91c8 -60 24 -105 52 -149c3 -4 5 -8 5 -10c0 -7 -6 -13 -12 -13s-10 3 -20 20c-44 67 -70 132 -79 202c-2 19 -2 63 0 83c9 69 35 134 79 201c6 10 11 17 13 18z"
         id="glyph59" />
      <glyph
         glyph-name="arrowheads.open.01"
         unicode=""
         horiz-adv-x="20"
         d="M-238 123c2 1 5 2 8 2c7 0 11 -2 21 -13c52 -56 122 -89 199 -92c19 -1 21 -1 26 -9c3 -4 4 -5 4 -11s-1 -7 -4 -11c-5 -8 -7 -8 -26 -9c-77 -3 -147 -36 -199 -92c-10 -11 -14 -13 -21 -13c-11 0 -20 9 -20 20c0 7 3 12 15 24c31 33 74 62 114 78c4 1 7 3 7 3s-3 2 -7 3 c-21 9 -50 25 -70 39c-22 16 -52 45 -57 54c-5 10 -1 22 10 27z"
         id="glyph61" />
      <glyph
         glyph-name="arrowheads.open.0M1"
         unicode=""
         d="M222 123c7 3 16 2 22 -3c6 -6 8 -16 4 -24c-5 -9 -35 -38 -57 -54c-20 -14 -49 -30 -70 -39c-4 -1 -7 -3 -7 -3s3 -2 7 -3c40 -16 83 -45 114 -78c12 -12 15 -17 15 -24c0 -11 -9 -20 -20 -20c-7 0 -11 2 -21 13c-52 56 -122 89 -199 92c-19 1 -21 1 -26 9 c-3 4 -3 5 -3 11s0 7 3 11c5 8 7 8 26 9c77 3 148 36 199 92c5 5 10 10 13 11z"
         id="glyph63" />
      <glyph
         glyph-name="arrowheads.open.11"
         unicode=""
         horiz-adv-x="125"
         d="M-7 19c5 2 13 1 18 -3c8 -5 8 -7 9 -26c3 -77 36 -147 92 -199c11 -10 13 -14 13 -21c0 -11 -9 -20 -20 -20c-7 0 -12 3 -24 15c-33 31 -62 74 -78 114c-1 4 -3 7 -3 7s-2 -3 -3 -7c-16 -40 -45 -83 -78 -114c-12 -12 -17 -15 -24 -15c-11 0 -20 9 -20 20c0 7 2 11 13 21 c56 51 89 123 92 197c0 10 1 17 2 20c1 4 5 8 11 11z"
         id="glyph65" />
      <glyph
         glyph-name="arrowheads.open.1M1"
         unicode=""
         horiz-adv-x="125"
         d="M-113 248c5 3 11 2 17 0c9 -5 38 -35 54 -57c14 -20 30 -49 39 -70c1 -4 3 -7 3 -7s2 3 3 7c16 40 45 83 78 114c12 12 17 15 24 15c11 0 20 -9 20 -20c0 -7 -2 -11 -13 -21c-56 -52 -89 -122 -92 -199c-1 -19 -1 -21 -9 -26c-4 -3 -5 -3 -11 -3s-7 0 -11 3 c-8 5 -8 7 -9 26c-3 77 -36 147 -92 199c-11 10 -13 14 -13 21c0 8 4 15 12 18z"
         id="glyph67" />
      <glyph
         glyph-name="arrowheads.close.01"
         unicode=""
         horiz-adv-x="0"
         d="M-245 124c1 0 4 1 6 1c3 -1 6 -3 15 -12c21 -21 53 -42 98 -64c48 -23 98 -39 125 -39c4 0 6 -1 8 -2c2 -2 3 -4 3 -8s-1 -6 -3 -8c-2 -1 -4 -2 -8 -2c-27 0 -77 -16 -125 -39c-45 -22 -77 -43 -98 -64c-11 -11 -12 -11 -16 -11c-5 0 -9 2 -9 6c-1 2 0 9 1 16 c7 36 10 64 10 102s-2 64 -10 103c-2 12 -2 14 -1 17z"
         id="glyph69" />
      <glyph
         glyph-name="arrowheads.close.0M1"
         unicode=""
         d="M236 124c2 1 9 0 11 -2c3 -2 3 -6 1 -20c-7 -35 -10 -66 -10 -102s3 -67 10 -102c1 -7 2 -14 1 -16c0 -4 -4 -6 -9 -6c-4 0 -5 0 -15 11c-22 21 -54 42 -99 64c-48 23 -98 39 -125 39c-4 0 -6 1 -8 2c-2 2 -2 4 -2 8s0 6 2 8c2 1 4 2 8 2c27 0 77 16 125 39 c45 22 77 43 98 64c6 6 11 11 12 11z"
         id="glyph71" />
      <glyph
         glyph-name="arrowheads.close.11"
         unicode=""
         horiz-adv-x="125"
         d="M-5 9c2 1 4 1 6 1c6 -1 9 -5 9 -11c0 -27 16 -77 39 -125c22 -45 43 -77 64 -98c11 -11 12 -12 12 -16c0 -5 -3 -9 -7 -9c-2 -1 -9 0 -16 1c-35 7 -66 10 -102 10s-67 -3 -102 -10c-7 -1 -14 -2 -16 -1c-4 0 -6 4 -6 9c0 4 0 5 11 16c15 15 30 36 47 65 c31 55 56 125 56 158c0 5 2 9 5 10z"
         id="glyph73" />
      <glyph
         glyph-name="arrowheads.close.1M1"
         unicode=""
         horiz-adv-x="125"
         d="M-120 249c3 1 4 1 15 -1c34 -7 68 -10 105 -10c38 0 66 3 102 10c7 1 14 2 16 1c4 0 7 -4 7 -9c0 -4 -1 -5 -12 -15c-21 -22 -42 -54 -64 -99c-23 -48 -39 -98 -39 -125c0 -4 -1 -6 -2 -8c-2 -2 -4 -2 -8 -2s-6 0 -8 2c-1 2 -2 4 -2 8c0 27 -16 77 -39 125 c-22 45 -43 77 -64 98c-9 9 -11 12 -12 15c0 4 2 8 5 10z"
         id="glyph75" />
      <glyph
         glyph-name="dots.dot"
         unicode=""
         horiz-adv-x="112"
         d="M46 56c7 2 22 0 29 -2c18 -7 28 -17 35 -35c2 -6 2 -8 2 -18c0 -11 0 -13 -2 -19c-7 -18 -18 -29 -36 -35c-9 -3 -26 -3 -35 0c-18 6 -29 17 -36 35c-2 5 -2 8 -2 18s0 13 2 18c2 8 8 17 12 22c7 7 20 14 31 16z"
         id="glyph77" />
      <glyph
         glyph-name="noteheads.sM1"
         unicode=""
         horiz-adv-x="495"
         d="M-24 137c2 0 6 1 9 1c9 0 17 -5 22 -13l3 -4v-40l1 -40l5 8c23 36 78 66 142 80c57 12 122 12 179 0c64 -14 119 -44 142 -80l6 -8v40l1 40l2 4c6 9 15 14 25 13s18 -8 22 -17c2 -5 2 -237 0 -242c-8 -20 -36 -23 -47 -4l-2 5l-1 39v40l-6 -8c-23 -36 -78 -66 -142 -80 c-57 -12 -122 -12 -179 0c-64 14 -119 44 -142 80l-5 8l-1 -40v-39l-3 -5c-6 -9 -15 -14 -25 -13s-19 9 -22 18c-1 3 -1 45 -1 122l1 119l2 4c3 6 8 10 14 12zM239 109c-10 2 -30 3 -38 2c-17 -3 -33 -14 -42 -29c-13 -23 -17 -61 -8 -96c12 -48 52 -84 107 -96 c12 -2 33 -2 42 0c19 6 34 21 42 41c8 23 9 54 2 83c-12 47 -51 83 -105 95z"
         id="glyph79" />
      <glyph
         glyph-name="noteheads.s0"
         unicode=""
         horiz-adv-x="495"
         d="M214 137c41 3 86 0 123 -8c64 -14 118 -44 143 -81c11 -16 14 -29 14 -48s-3 -32 -14 -48c-25 -37 -79 -67 -143 -81c-57 -12 -122 -12 -179 0c-64 14 -118 44 -143 81c-11 16 -14 29 -14 48s3 32 14 48c32 48 110 83 199 89zM239 109c-10 2 -30 3 -38 2 c-17 -3 -33 -14 -42 -29c-13 -23 -17 -61 -8 -96c12 -48 52 -84 107 -96c12 -2 33 -2 42 0c19 6 34 21 42 41c8 23 9 54 2 83c-12 47 -51 83 -105 95z"
         id="glyph81" />
      <glyph
         glyph-name="noteheads.s1"
         unicode=""
         horiz-adv-x="347"
         d="M232 136c9 0 23 1 35 1c16 -1 20 -1 29 -3c14 -4 23 -9 31 -17s13 -17 17 -28c3 -12 3 -35 0 -51c-10 -46 -28 -84 -52 -109c-32 -32 -91 -55 -156 -62c-66 -8 -96 -3 -116 16c-8 8 -13 17 -17 28c-3 12 -3 35 0 51c10 46 28 84 52 108c13 13 25 22 48 33 c36 18 75 28 129 33zM284 105c-14 3 -27 0 -57 -15c-21 -11 -54 -31 -105 -65c-53 -34 -77 -55 -85 -70c-6 -13 -7 -26 -1 -39c10 -19 32 -27 56 -19c24 9 63 31 133 78c53 34 77 55 85 70c6 13 7 26 1 39c-6 11 -14 17 -27 21z"
         id="glyph83" />
      <glyph
         glyph-name="noteheads.s2"
         unicode=""
         horiz-adv-x="329"
         d="M199 137c12 1 40 0 51 -2c40 -9 67 -31 76 -64c3 -11 3 -34 1 -47c-9 -41 -37 -81 -77 -111c-34 -25 -73 -42 -111 -49c-15 -2 -45 -2 -57 0c-42 9 -70 31 -79 66c-3 10 -3 33 -1 46c9 41 37 81 78 111c36 28 78 45 119 50z"
         id="glyph85" />
      <glyph
         glyph-name="noteheads.s0diamond"
         unicode=""
         horiz-adv-x="495"
         d="M234 137c7 1 26 0 34 -2s22 -9 32 -15c5 -3 16 -12 26 -20c46 -36 50 -38 102 -49c41 -8 55 -15 63 -32c3 -7 4 -8 4 -19s-1 -12 -4 -19c-8 -17 -22 -24 -63 -32c-52 -11 -56 -13 -102 -49c-20 -17 -30 -23 -43 -29c-14 -7 -20 -8 -35 -8c-16 0 -22 1 -36 8 c-13 6 -23 12 -43 29c-46 36 -50 38 -102 49c-41 8 -55 15 -63 32c-3 7 -3 8 -3 19s0 12 3 19c8 17 22 24 63 32c52 11 56 13 102 49c30 24 47 34 65 37zM230 72c-11 3 -23 4 -28 2c-11 -4 -15 -15 -17 -46c-3 -39 0 -58 10 -70c8 -8 23 -16 49 -24c54 -17 63 -12 66 38 c3 39 0 58 -10 70c-10 10 -34 21 -70 30z"
         id="glyph87" />
      <glyph
         glyph-name="noteheads.s1diamond"
         unicode=""
         horiz-adv-x="364"
         d="M309 137c9 2 22 1 29 -2c13 -5 25 -21 26 -35c1 -13 -4 -24 -21 -50c-6 -9 -12 -19 -14 -23c-8 -14 -11 -28 -13 -57c-2 -27 -4 -38 -9 -49c-7 -14 -22 -24 -41 -29c-13 -3 -39 -3 -65 0c-24 3 -44 4 -55 2c-12 -1 -26 -6 -53 -17c-30 -12 -37 -14 -50 -14 c-15 0 -21 2 -29 10c-13 12 -17 26 -12 41c3 10 7 17 19 36c6 9 12 19 14 23c8 14 11 28 13 58c2 26 4 37 9 48c7 14 22 24 42 29c12 3 38 3 64 0c24 -3 44 -4 55 -2c12 1 27 6 52 16c21 9 29 12 39 15zM278 77c-7 4 -18 5 -26 2c-18 -5 -46 -20 -101 -57 c-58 -37 -77 -56 -79 -74c-1 -15 10 -27 26 -29c18 -1 45 12 115 59c45 29 69 49 75 62c8 16 3 31 -10 37z"
         id="glyph89" />
      <glyph
         glyph-name="noteheads.s2diamond"
         unicode=""
         horiz-adv-x="369"
         d="M318 137c4 0 10 1 15 1c15 -1 24 -7 32 -23c3 -7 4 -8 4 -15s-1 -9 -4 -15c-6 -13 -11 -19 -40 -44c-38 -33 -42 -39 -65 -92c-16 -38 -24 -52 -38 -67c-14 -13 -23 -18 -37 -19c-9 0 -19 1 -41 6c-34 8 -40 8 -73 -1c-19 -5 -23 -5 -32 -5c-11 0 -12 0 -17 2 c-7 4 -13 10 -18 20c-3 7 -3 8 -3 16c0 6 0 8 3 14c6 13 11 19 40 44c38 33 42 39 65 93c16 37 24 51 38 66c14 13 23 18 37 19c9 0 19 -1 41 -6c33 -8 41 -8 69 0c9 2 20 5 24 6z"
         id="glyph91" />
      <glyph
         glyph-name="noteheads.s0triangle"
         unicode=""
         horiz-adv-x="579"
         d="M27 182c16 3 15 4 50 -13c85 -42 165 -69 256 -87c64 -13 117 -19 189 -21c30 -1 33 -1 38 -3c16 -6 22 -18 17 -30c-4 -8 -11 -12 -36 -19c-61 -16 -106 -32 -156 -56c-81 -39 -149 -88 -215 -152c-22 -22 -23 -22 -37 -21c-23 2 -39 10 -41 22c0 2 1 7 2 12s3 15 4 23 c13 93 -7 186 -58 265c-10 15 -23 32 -31 41c-11 11 -13 17 -9 25c3 7 12 12 27 14zM209 57l-50 16l-26 9l7 -14c25 -52 37 -105 37 -161v-15l12 10c57 46 124 85 192 112l12 4l-9 2c-55 7 -119 21 -175 37z"
         id="glyph93" />
      <glyph
         glyph-name="noteheads.d1triangle"
         unicode=""
         horiz-adv-x="418"
         d="M19 164c5 2 8 2 14 2l8 -1l17 -11c59 -37 117 -62 183 -78c44 -11 83 -16 133 -18c21 -1 25 -1 29 -3c13 -6 19 -18 14 -30c-4 -10 -11 -14 -32 -21c-106 -36 -191 -96 -262 -188c-8 -10 -13 -13 -23 -14c-12 -1 -26 5 -31 14c-4 6 -4 10 -2 27c4 21 5 31 6 54 c2 78 -20 156 -64 223c-4 6 -8 12 -9 15c-4 12 4 23 19 29zM133 56c-9 3 -20 8 -24 10c-4 1 -7 3 -7 2c0 0 1 -3 3 -7c15 -39 24 -82 27 -128l2 -19l10 9c35 33 83 67 124 88c5 2 8 4 8 5c-1 0 -9 1 -17 3c-44 8 -85 21 -126 37z"
         id="glyph95" />
      <glyph
         glyph-name="noteheads.u1triangle"
         unicode=""
         horiz-adv-x="418"
         d="M19 164c5 2 8 2 14 2l8 -1l17 -11c59 -37 117 -62 183 -78c44 -11 83 -16 133 -18c21 -1 25 -1 29 -3c13 -6 19 -18 14 -30c-4 -10 -11 -14 -32 -21c-106 -36 -191 -96 -262 -188c-8 -10 -13 -13 -23 -14c-12 -1 -26 5 -31 14c-4 6 -4 10 -2 27c4 21 5 31 6 54 c2 78 -20 156 -64 223c-4 6 -8 12 -9 15c-4 12 4 23 19 29zM133 56c-9 3 -20 8 -24 10c-4 1 -7 3 -7 2c0 0 1 -3 3 -7c15 -39 24 -82 27 -128l2 -19l10 9c35 33 83 67 124 88c5 2 8 4 8 5c-1 0 -9 1 -17 3c-44 8 -85 21 -126 37z"
         id="glyph97" />
      <glyph
         glyph-name="noteheads.u2triangle"
         unicode=""
         horiz-adv-x="348"
         d="M17 164c10 4 17 2 34 -11c50 -39 105 -66 165 -82c33 -8 74 -14 103 -14c7 0 10 -1 14 -2c17 -6 21 -28 8 -41c-4 -4 -7 -6 -20 -11c-89 -37 -162 -97 -213 -179c-12 -18 -18 -23 -31 -22c-10 1 -20 11 -22 20c0 3 1 12 2 22c11 89 -2 174 -38 253c-3 7 -8 17 -11 23 c-4 6 -7 12 -7 15c-3 12 4 25 16 29z"
         id="glyph99" />
      <glyph
         glyph-name="noteheads.d2triangle"
         unicode=""
         horiz-adv-x="348"
         d="M17 164c10 4 17 2 34 -11c50 -39 105 -66 165 -82c33 -8 74 -14 103 -14c7 0 10 -1 14 -2c17 -6 21 -28 8 -41c-4 -4 -7 -6 -20 -11c-89 -37 -162 -97 -213 -179c-12 -18 -18 -23 -31 -22c-10 1 -20 11 -22 20c0 3 1 12 2 22c11 89 -2 174 -38 253c-3 7 -8 17 -11 23 c-4 6 -7 12 -7 15c-3 12 4 25 16 29z"
         id="glyph101" />
      <glyph
         glyph-name="noteheads.s0slash"
         unicode=""
         horiz-adv-x="754"
         d="M315 262c2 1 91 1 218 1c210 0 216 -1 218 -2c2 -3 4 -8 2 -12s-310 -508 -312 -509c-2 -2 -3 -2 -219 -2c-211 0 -217 0 -219 1c-2 3 -4 8 -2 12c1 2 300 491 309 505c2 3 4 5 5 6zM631 183l6 10h-142h-142l-1 -2c-2 -2 -215 -351 -230 -375l-5 -9h142l142 1l112 183z "
         id="glyph103" />
      <glyph
         glyph-name="noteheads.s1slash"
         unicode=""
         horiz-adv-x="586"
         d="M315 262c2 1 57 1 134 1c128 0 132 -1 134 -2c2 -3 4 -8 2 -12s-310 -508 -312 -509c-2 -2 -3 -2 -135 -2c-129 0 -133 0 -135 1c-2 3 -4 8 -2 12c1 2 300 491 309 505c2 3 4 5 5 6zM463 183l6 10h-58h-58l-1 -2c-2 -2 -215 -351 -230 -375l-5 -9h58l58 1l112 183z"
         id="glyph105" />
      <glyph
         glyph-name="noteheads.s2slash"
         unicode=""
         horiz-adv-x="429"
         d="M315 262c2 1 25 1 56 1c50 0 53 -1 55 -2c2 -3 4 -8 2 -12s-310 -508 -312 -509c-2 -2 -3 -2 -56 -2c-52 0 -55 0 -57 1c-2 3 -4 8 -2 12c1 2 300 491 309 505c2 3 4 5 5 6z"
         id="glyph107" />
      <glyph
         glyph-name="noteheads.s0cross"
         unicode=""
         horiz-adv-x="429"
         d="M94 149c4 1 9 1 12 -1c2 0 27 -17 56 -37l53 -36l53 36c29 20 54 37 56 38c7 3 8 3 57 -30c24 -16 45 -31 46 -32c3 -4 3 -14 0 -18c-1 -1 -24 -17 -51 -35l-48 -34l48 -34c27 -18 50 -34 51 -35c3 -4 3 -14 0 -18c-1 -1 -22 -16 -46 -32c-49 -33 -50 -33 -57 -30 c-2 1 -27 18 -56 38l-53 36l-53 -36c-29 -20 -54 -37 -56 -38c-7 -3 -8 -3 -57 30c-24 16 -45 31 -46 32c-3 4 -3 14 0 18c1 1 24 17 51 35l49 34l-49 34c-27 18 -50 34 -51 35c-3 4 -3 13 -1 17c2 3 87 61 92 63zM157 77c-29 20 -53 36 -55 37c-2 2 -3 2 -29 -17 c-15 -10 -27 -19 -27 -19c0 -1 21 -16 47 -34c27 -18 49 -34 50 -35c3 -4 3 -14 0 -18c-1 -1 -23 -17 -50 -35c-26 -18 -48 -33 -48 -34s54 -38 55 -37l55 37l55 37h5h6l54 -37l55 -37c1 -1 55 36 55 37s-22 16 -48 34c-27 18 -49 34 -50 35c-3 4 -3 14 0 18 c1 1 23 17 50 35c26 18 48 33 48 34s-54 38 -55 37l-55 -37l-54 -36h-6h-5z"
         id="glyph109" />
      <glyph
         glyph-name="noteheads.s1cross"
         unicode=""
         horiz-adv-x="379"
         d="M73 143c3 1 8 1 11 0c2 0 26 -18 54 -39l52 -39l52 39c31 23 53 39 55 39c2 1 5 1 7 1c4 -1 71 -50 74 -54c2 -3 2 -13 0 -16c-1 -2 -24 -19 -50 -38l-48 -36l48 -36c26 -19 49 -36 50 -38c2 -3 2 -13 0 -16c-3 -4 -70 -53 -74 -54c-2 0 -5 0 -7 1c-2 0 -24 16 -55 39 l-52 39l-52 -39c-31 -23 -53 -39 -55 -39c-2 -1 -5 -1 -7 -1c-4 1 -71 50 -74 54c-2 3 -2 13 0 16c1 2 24 19 50 38l48 36l-48 36c-26 19 -49 36 -50 38c-2 3 -2 13 0 16s65 50 71 53zM132 70l-53 39c-1 0 -35 -26 -36 -27c0 0 21 -17 48 -36c26 -19 48 -36 49 -38 c1 -1 2 -4 2 -8s-1 -7 -2 -8c-1 -2 -23 -19 -49 -38c-27 -19 -48 -35 -48 -36c0 0 8 -7 18 -14l18 -13l6 4l53 39c30 22 47 34 49 35h6c2 -1 19 -13 50 -35l52 -39l6 -4l18 13c10 7 18 14 18 14c0 1 -21 17 -48 36c-26 19 -48 36 -49 38c-2 3 -2 13 0 16c1 2 23 19 49 38 c27 19 48 35 48 36c0 0 -8 7 -18 14l-18 13l-6 -4l-52 -39c-31 -22 -48 -34 -50 -35h-6c-2 1 -21 14 -55 39z"
         id="glyph111" />
      <glyph
         glyph-name="noteheads.s2cross"
         unicode=""
         horiz-adv-x="329"
         d="M30 137c4 2 9 1 13 -1c2 -1 30 -24 63 -51l59 -49l59 49c33 27 61 50 63 51c4 2 8 3 12 1c2 -1 9 -6 16 -11c13 -11 15 -14 15 -20c0 -7 -1 -8 -61 -57l-59 -49l59 -49c60 -49 61 -50 61 -57c0 -6 -2 -9 -15 -20c-7 -5 -14 -10 -16 -11c-4 -2 -8 -1 -12 1 c-2 1 -30 24 -63 51l-59 49l-59 -49c-33 -27 -61 -50 -63 -51c-4 -2 -8 -3 -12 -1c-2 1 -9 6 -16 11c-13 11 -15 14 -15 20c0 7 1 8 61 57l59 49l-59 49c-60 49 -61 50 -61 57c0 6 2 9 15 20c7 5 14 10 15 11z"
         id="glyph113" />
      <glyph
         glyph-name="noteheads.s2xcircle"
         unicode=""
         horiz-adv-x="391"
         d="M179 172c6 1 40 0 50 -1c44 -7 84 -27 114 -57c18 -19 32 -41 40 -66c6 -17 7 -27 7 -48s-1 -31 -7 -48c-8 -25 -22 -47 -40 -66c-26 -25 -57 -43 -93 -52c-21 -5 -31 -6 -54 -6c-24 0 -34 1 -54 6c-37 9 -68 27 -93 52c-7 7 -15 16 -18 21c-14 19 -25 45 -29 66 c-2 13 -2 41 0 54c4 21 15 47 29 66c14 20 38 41 60 53s53 22 75 25c5 1 11 1 13 1zM215 135c-27 3 -57 -1 -81 -10c-9 -3 -28 -12 -32 -15c-2 -1 2 -5 45 -43c26 -23 48 -41 49 -41l48 41c43 38 47 42 45 43c-4 3 -23 12 -32 15c-11 4 -29 8 -42 10zM119 42l-48 42 c-1 0 -15 -19 -20 -27c-5 -11 -8 -19 -11 -31c-2 -8 -2 -12 -2 -26s0 -18 2 -26c3 -12 6 -20 11 -30c5 -9 19 -28 20 -28c1 1 96 83 96 84zM328 74c-4 6 -7 10 -8 10s-96 -83 -96 -84s95 -83 96 -84c1 0 15 19 20 28c5 10 8 18 11 30c2 8 2 12 2 26s0 18 -2 26 c-5 19 -11 33 -23 48zM244 -67c-25 22 -47 41 -48 41c0 1 -17 -13 -49 -41c-43 -38 -47 -42 -45 -43c1 0 6 -3 12 -6c51 -27 112 -27 163 0c6 3 11 6 12 6c2 1 -2 5 -45 43z"
         id="glyph115" />
      <glyph
         glyph-name="noteheads.s0do"
         unicode=""
         horiz-adv-x="495"
         d="M239 110c6 3 11 3 18 0c2 -2 56 -44 119 -94c108 -86 114 -91 116 -96c4 -7 4 -12 1 -18s-6 -9 -12 -12c-4 -2 -5 -2 -233 -2c-229 0 -230 0 -234 2c-6 3 -9 6 -12 12s-3 11 1 18c2 5 8 10 117 96c62 50 116 92 119 94zM330 -4c-43 34 -79 62 -80 63c-3 2 -4 1 -83 -62 l-80 -63l81 -1h160l80 1z"
         id="glyph117" />
      <glyph
         glyph-name="noteheads.d1do"
         unicode=""
         horiz-adv-x="347"
         d="M164 110c3 1 7 2 10 2c2 0 6 -1 9 -2c4 -3 11 -10 82 -94c46 -55 78 -94 80 -97c3 -6 3 -11 0 -17s-6 -9 -12 -12c-4 -2 -6 -2 -159 -2c-154 0 -156 0 -160 2c-6 3 -9 6 -12 12s-3 11 0 17c2 3 34 42 80 97c71 84 78 91 82 94zM227 -9c-26 32 -49 59 -51 61l-2 3l-52 -61 l-51 -60l51 -1h102l52 1z"
         id="glyph119" />
      <glyph
         glyph-name="noteheads.u1do"
         unicode=""
         horiz-adv-x="347"
         d="M164 110c3 1 7 2 10 2c2 0 6 -1 9 -2c4 -3 11 -10 82 -94c46 -55 78 -94 80 -97c3 -6 3 -11 0 -17s-6 -9 -12 -12c-4 -2 -6 -2 -159 -2c-154 0 -156 0 -160 2c-6 3 -9 6 -12 12s-3 11 0 17c2 3 34 42 80 97c71 84 78 91 82 94zM227 -9c-26 32 -49 59 -51 61l-2 3l-52 -61 l-51 -60l51 -1h102l52 1z"
         id="glyph121" />
      <glyph
         glyph-name="noteheads.d2do"
         unicode=""
         horiz-adv-x="329"
         d="M155 109c3 2 7 3 10 3c2 0 6 -1 9 -3c5 -2 9 -7 78 -93c40 -51 73 -94 75 -96c3 -7 3 -12 0 -18s-6 -9 -12 -12c-4 -2 -6 -2 -150 -2c-145 0 -147 0 -151 2c-6 3 -9 6 -12 12s-3 11 0 18c2 2 35 45 75 96c69 86 73 91 78 93z"
         id="glyph123" />
      <glyph
         glyph-name="noteheads.u2do"
         unicode=""
         horiz-adv-x="329"
         d="M155 109c3 2 7 3 10 3c2 0 6 -1 9 -3c5 -2 9 -7 78 -93c40 -51 73 -94 75 -96c3 -7 3 -12 0 -18s-6 -9 -12 -12c-4 -2 -6 -2 -150 -2c-145 0 -147 0 -151 2c-6 3 -9 6 -12 12s-3 11 0 18c2 2 35 45 75 96c69 86 73 91 78 93z"
         id="glyph125" />
      <glyph
         glyph-name="noteheads.s0re"
         unicode=""
         horiz-adv-x="338"
         d="M13 110l6 2h150h151l5 -2c5 -3 9 -7 11 -13c2 -4 2 -9 2 -43c-1 -36 -1 -38 -3 -48c-5 -18 -11 -32 -21 -47c-30 -43 -86 -71 -145 -71s-115 28 -145 71c-10 15 -16 29 -21 47c-2 10 -2 12 -3 48c0 34 0 39 2 43c2 6 6 10 11 13zM293 44v23h-124h-124v-23 c1 -19 1 -24 3 -30c4 -17 13 -31 26 -44c18 -17 41 -29 69 -35c12 -2 40 -2 52 0c28 6 51 18 69 35c13 13 22 27 26 44c2 6 2 11 3 30z"
         id="glyph127" />
      <glyph
         glyph-name="noteheads.u1re"
         unicode=""
         horiz-adv-x="238"
         d="M13 110l6 2h100c99 0 101 0 105 -2c6 -3 9 -6 12 -11c2 -5 2 -6 2 -40c0 -38 -1 -50 -6 -69c-10 -37 -30 -68 -57 -85c-19 -12 -34 -16 -56 -16s-37 4 -56 16c-30 19 -52 56 -60 98c-2 10 -2 16 -3 50c0 35 0 40 2 44c2 6 6 10 11 13zM193 41v26h-74h-74v-26 c1 -21 1 -27 3 -35c10 -45 37 -73 71 -73s61 28 71 73c2 8 2 14 3 35z"
         id="glyph129" />
      <glyph
         glyph-name="noteheads.d1re"
         unicode=""
         horiz-adv-x="238"
         d="M13 110l6 2h100c99 0 101 0 105 -2c6 -3 9 -6 12 -11c2 -5 2 -6 2 -40c0 -38 -1 -50 -6 -69c-10 -37 -30 -68 -57 -85c-19 -12 -34 -16 -56 -16s-37 4 -56 16c-30 19 -52 56 -60 98c-2 10 -2 16 -3 50c0 35 0 40 2 44c2 6 6 10 11 13zM193 41v26h-74h-74v-26 c1 -21 1 -27 3 -35c10 -45 37 -73 71 -73s61 28 71 73c2 8 2 14 3 35z"
         id="glyph131" />
      <glyph
         glyph-name="noteheads.u2re"
         unicode=""
         horiz-adv-x="225"
         d="M14 110l5 2h94c92 0 94 0 98 -2c6 -3 9 -6 12 -11c2 -5 2 -6 2 -40c0 -19 0 -38 -1 -44c-5 -48 -27 -90 -57 -110c-8 -6 -21 -12 -30 -14c-12 -3 -37 -3 -48 0c-16 4 -31 13 -44 24c-19 18 -35 49 -41 81c-3 16 -4 28 -4 63c0 33 0 35 2 39c3 6 6 9 12 12z"
         id="glyph133" />
      <glyph
         glyph-name="noteheads.d2re"
         unicode=""
         horiz-adv-x="225"
         d="M14 110l5 2h94c92 0 94 0 98 -2c6 -3 9 -6 12 -11c2 -5 2 -6 2 -40c0 -19 0 -38 -1 -44c-5 -48 -27 -90 -57 -110c-8 -6 -21 -12 -30 -14c-12 -3 -37 -3 -48 0c-16 4 -31 13 -44 24c-19 18 -35 49 -41 81c-3 16 -4 28 -4 63c0 33 0 35 2 39c3 6 6 9 12 12z"
         id="glyph135" />
      <glyph
         glyph-name="noteheads.s0mi"
         unicode=""
         horiz-adv-x="338"
         d="M161 111c4 1 11 1 15 0c4 -2 149 -90 154 -94c4 -3 8 -11 8 -17s-4 -14 -8 -17c-5 -4 -150 -92 -154 -94c-4 -1 -10 -1 -14 0c-5 2 -152 92 -155 94c-3 4 -7 12 -7 17c0 6 4 14 8 17c5 4 150 92 153 94zM214 23c-27 16 -50 30 -52 32l-4 2l-40 -25 c-22 -13 -40 -24 -41 -25c-1 0 101 -64 103 -63c1 0 82 49 82 50z"
         id="glyph137" />
      <glyph
         glyph-name="noteheads.s1mi"
         unicode=""
         horiz-adv-x="225"
         d="M105 111c5 1 10 1 16 -1c4 -1 10 -6 52 -48c51 -51 52 -52 52 -62s-1 -11 -52 -62c-44 -44 -48 -47 -53 -48c-6 -3 -13 -2 -18 1c-2 1 -25 22 -50 48c-51 50 -52 51 -52 61c0 9 2 11 49 58c52 52 51 51 56 53zM141 -29l21 21l-29 29l-29 29l-20 -21l-21 -21l29 -29 l28 -29z"
         id="glyph139" />
      <glyph
         glyph-name="noteheads.s2mi"
         unicode=""
         horiz-adv-x="225"
         d="M105 111c5 1 10 1 16 -1c4 -1 10 -6 52 -48c51 -51 52 -52 52 -62s-1 -11 -52 -62c-44 -44 -48 -47 -53 -48c-6 -3 -13 -2 -18 1c-2 1 -25 22 -50 48c-51 50 -52 51 -52 61c0 9 2 11 49 58c52 52 51 51 56 53z"
         id="glyph141" />
      <glyph
         glyph-name="noteheads.u0fa"
         unicode=""
         horiz-adv-x="338"
         d="M14 110l5 2h150h151l5 -2c5 -3 8 -6 11 -12c2 -4 2 -6 2 -98s0 -94 -2 -98c-3 -6 -6 -9 -11 -12c-7 -2 -12 -3 -18 0c-5 2 -297 181 -300 183c-3 3 -7 12 -7 17c0 4 3 11 6 15c2 1 5 3 8 5zM293 9v58h-95h-95c1 -1 189 -116 190 -116v58z"
         id="glyph143" />
      <glyph
         glyph-name="noteheads.d0fa"
         unicode=""
         horiz-adv-x="338"
         d="M14 110c6 2 11 3 17 0c5 -2 297 -181 300 -183c3 -3 7 -12 7 -16c0 -5 -3 -12 -6 -16c-2 -1 -5 -3 -7 -5l-5 -2h-151h-150l-5 2c-6 3 -9 6 -12 12c-2 4 -2 6 -2 98s0 94 2 98c3 6 6 9 12 12zM140 -9c-52 32 -94 58 -95 58v-58v-58h95h95c0 1 -43 27 -95 58z"
         id="glyph145" />
      <glyph
         glyph-name="noteheads.u1fa"
         unicode=""
         horiz-adv-x="238"
         d="M14 110l5 2h100c99 0 101 0 105 -2c6 -3 9 -6 12 -11l2 -5v-94v-93l-2 -5c-3 -6 -6 -9 -12 -12s-11 -3 -17 0c-4 2 -33 28 -104 94c-87 81 -99 93 -101 97c-3 6 -3 11 0 17s6 9 12 12zM193 14v53h-57c-55 0 -56 0 -54 -2c1 -1 24 -22 51 -47c26 -25 51 -48 54 -51l6 -5 v52z"
         id="glyph147" />
      <glyph
         glyph-name="noteheads.d1fa"
         unicode=""
         horiz-adv-x="238"
         d="M14 110c6 3 11 3 17 0c4 -2 33 -28 104 -94c87 -81 99 -93 101 -97c3 -6 3 -11 0 -17s-6 -9 -12 -12c-4 -2 -6 -2 -105 -2h-100l-5 2c-6 3 -9 6 -12 12c-2 4 -2 6 -2 98s0 94 2 98c3 6 6 9 12 12zM106 -18c-27 25 -52 48 -55 51l-6 5v-52v-53h57c55 0 56 0 54 2 c-1 1 -24 22 -50 47z"
         id="glyph149" />
      <glyph
         glyph-name="noteheads.u2fa"
         unicode=""
         horiz-adv-x="225"
         d="M14 110l5 2h94c92 0 94 0 98 -2c6 -3 9 -6 12 -11l2 -5v-94v-93l-2 -5c-3 -6 -6 -9 -12 -12c-6 -2 -11 -3 -17 0c-3 2 -27 25 -97 94c-98 97 -97 96 -97 106c0 4 3 11 6 15c2 1 5 3 8 5z"
         id="glyph151" />
      <glyph
         glyph-name="noteheads.d2fa"
         unicode=""
         horiz-adv-x="225"
         d="M14 110c6 2 11 3 17 0c3 -2 27 -25 97 -94c98 -97 97 -96 97 -105c0 -5 -4 -14 -7 -17c-1 -1 -5 -3 -7 -4c-4 -2 -6 -2 -98 -2h-94l-5 2c-6 3 -9 6 -12 12c-2 4 -2 6 -2 98s0 94 2 98c3 6 6 9 12 12z"
         id="glyph153" />
      <glyph
         glyph-name="noteheads.s0la"
         unicode=""
         horiz-adv-x="338"
         d="M14 110l5 2h150h151l5 -2c5 -3 8 -6 11 -12c2 -4 2 -6 2 -98s0 -94 -2 -98c-3 -6 -6 -9 -11 -12l-5 -2h-151h-150l-5 2c-6 3 -9 6 -12 12c-2 4 -2 6 -2 98s0 94 2 98c3 6 6 9 12 12zM293 0v67h-124h-124v-67v-67h124h124v67z"
         id="glyph155" />
      <glyph
         glyph-name="noteheads.s1la"
         unicode=""
         horiz-adv-x="238"
         d="M14 110l5 2h100c99 0 101 0 105 -2c6 -3 9 -6 12 -11l2 -5v-94v-93l-2 -5c-3 -6 -6 -9 -12 -12c-4 -2 -6 -2 -105 -2h-100l-5 2c-6 3 -9 6 -12 12c-2 4 -2 6 -2 98s0 94 2 98c3 6 6 9 12 12zM193 0v67h-74h-74v-67v-67h74h74v67z"
         id="glyph157" />
      <glyph
         glyph-name="noteheads.s2la"
         unicode=""
         horiz-adv-x="225"
         d="M14 110l5 2h94c92 0 94 0 98 -2c6 -3 9 -6 12 -11l2 -5v-94v-93l-2 -5c-3 -6 -6 -9 -12 -12c-4 -2 -6 -2 -98 -2h-94l-5 2c-6 3 -9 6 -12 12c-2 4 -2 6 -2 98s0 94 2 98c3 6 6 9 12 12z"
         id="glyph159" />
      <glyph
         glyph-name="noteheads.s0ti"
         unicode=""
         horiz-adv-x="338"
         d="M146 111c55 6 114 -11 158 -45c23 -18 34 -31 34 -42c0 -10 3 -8 -81 -73c-42 -33 -78 -61 -80 -61c-5 -2 -11 -2 -16 0c-2 0 -38 28 -80 61c-84 65 -81 63 -81 73c0 11 11 24 34 42c32 24 73 41 112 45zM188 66c-40 4 -84 -6 -117 -29c-13 -9 -15 -10 -13 -11 c1 -1 26 -21 56 -44l55 -43l55 43c30 23 55 43 56 44c2 1 0 2 -13 11c-22 15 -51 26 -79 29z"
         id="glyph161" />
      <glyph
         glyph-name="noteheads.u1ti"
         unicode=""
         horiz-adv-x="238"
         d="M100 110c45 7 91 -11 119 -48c3 -5 9 -14 13 -21c6 -14 7 -18 4 -24c0 -2 -24 -30 -52 -64c-46 -55 -51 -61 -55 -63c-7 -3 -13 -3 -20 0c-4 2 -9 8 -55 63c-28 34 -52 62 -52 64c-3 6 -2 10 4 24c4 7 10 16 13 21c20 26 50 44 81 48zM141 64c-8 2 -27 3 -35 2 c-20 -4 -39 -15 -52 -30c-3 -3 -5 -6 -5 -7s69 -82 70 -82s70 81 70 82c0 2 -11 13 -17 19c-8 6 -21 13 -31 16z"
         id="glyph163" />
      <glyph
         glyph-name="noteheads.d1ti"
         unicode=""
         horiz-adv-x="238"
         d="M100 110c45 7 91 -11 119 -48c3 -5 9 -14 13 -21c6 -14 7 -18 4 -24c0 -2 -24 -30 -52 -64c-46 -55 -51 -61 -55 -63c-7 -3 -13 -3 -20 0c-4 2 -9 8 -55 63c-28 34 -52 62 -52 64c-3 6 -2 10 4 24c4 7 10 16 13 21c20 26 50 44 81 48zM141 64c-8 2 -27 3 -35 2 c-20 -4 -39 -15 -52 -30c-3 -3 -5 -6 -5 -7s69 -82 70 -82s70 81 70 82c0 2 -11 13 -17 19c-8 6 -21 13 -31 16z"
         id="glyph165" />
      <glyph
         glyph-name="noteheads.u2ti"
         unicode=""
         horiz-adv-x="225"
         d="M94 110c23 4 50 0 69 -10c22 -10 42 -30 52 -51c5 -8 10 -23 10 -26c0 -1 0 -3 -1 -5c0 -1 -22 -30 -48 -63c-46 -58 -49 -62 -54 -64c-7 -4 -12 -4 -19 0c-5 2 -8 6 -54 64c-26 33 -48 62 -48 63c-2 5 -1 8 2 17c7 18 15 30 28 43c17 17 40 29 63 32z"
         id="glyph167" />
      <glyph
         glyph-name="noteheads.d2ti"
         unicode=""
         horiz-adv-x="225"
         d="M94 110c23 4 50 0 69 -10c22 -10 42 -30 52 -51c5 -8 10 -23 10 -26c0 -1 0 -3 -1 -5c0 -1 -22 -30 -48 -63c-46 -58 -49 -62 -54 -64c-7 -4 -12 -4 -19 0c-5 2 -8 6 -54 64c-26 33 -48 62 -48 63c-2 5 -1 8 2 17c7 18 15 30 28 43c17 17 40 29 63 32z"
         id="glyph169" />
      <glyph
         glyph-name="scripts.ufermata"
         unicode=""
         horiz-adv-x="331"
         d="M-21 362c9 1 48 0 58 -1c61 -10 114 -37 162 -84c55 -56 97 -133 121 -223c7 -26 12 -55 12 -59c-2 -10 -15 -16 -26 -11c-8 3 -10 7 -13 24c-20 89 -67 160 -138 207c-15 10 -42 24 -57 29c-63 24 -133 24 -196 0c-15 -5 -42 -19 -57 -29c-71 -47 -118 -118 -138 -207 c-3 -17 -5 -21 -13 -24c-8 -4 -18 -1 -23 4c-4 5 -4 9 0 29c17 79 49 155 90 212c59 81 131 125 218 133zM-16 113c30 7 62 -7 75 -34c5 -10 8 -21 8 -31c0 -17 -7 -35 -19 -47c-32 -32 -88 -24 -107 16c-10 21 -10 41 0 62c8 17 24 29 43 34z"
         id="glyph171" />
      <glyph
         glyph-name="scripts.dfermata"
         unicode=""
         horiz-adv-x="331"
         d="M-16 17c30 7 62 -7 75 -34c5 -10 8 -21 8 -31c0 -17 -7 -35 -19 -47c-32 -32 -88 -24 -107 16c-10 21 -10 41 0 62c8 17 24 29 43 34zM-323 16c5 2 12 3 17 0c8 -3 10 -7 13 -24c20 -89 67 -160 138 -207c15 -10 42 -24 57 -29c63 -24 133 -24 196 0c15 5 42 19 57 29 c71 47 118 118 138 207c3 17 5 21 13 24c8 4 18 1 23 -4c4 -5 4 -9 0 -29c-17 -79 -49 -155 -90 -212c-55 -76 -122 -119 -203 -132c-15 -2 -57 -2 -72 0c-63 10 -115 37 -163 84c-55 56 -97 133 -121 223c-7 26 -12 55 -12 59c1 5 4 9 9 11z"
         id="glyph173" />
      <glyph
         glyph-name="scripts.ushortfermata"
         unicode=""
         d="M-8 548c3 1 6 2 8 2c5 0 11 -3 14 -7c4 -5 235 -518 236 -522c1 -8 -4 -16 -11 -19c-4 -2 -7 -2 -32 -2c-32 0 -34 0 -39 7c-2 2 -46 98 -98 213s-95 209 -96 209l-94 -209c-52 -115 -95 -211 -97 -213c-3 -4 -9 -7 -14 -7c-11 0 -20 11 -19 21c1 4 232 517 236 522 c1 2 4 4 6 5zM-41 132c30 7 62 -7 75 -34c8 -15 10 -29 6 -45c-5 -25 -24 -45 -49 -51c-37 -9 -74 14 -81 51c-8 36 14 70 49 79z"
         id="glyph175" />
      <glyph
         glyph-name="scripts.dshortfermata"
         unicode=""
         d="M-239 -2c4 2 7 2 33 2c31 0 33 0 38 -7c2 -2 46 -98 98 -213s95 -209 96 -209l94 210c52 114 95 210 97 212c3 4 9 7 14 7c11 0 20 -11 19 -21c-1 -4 -232 -517 -236 -522c-3 -4 -9 -7 -14 -7s-11 3 -14 7c-4 5 -235 518 -236 522c-1 8 4 16 11 19zM9 -2 c30 7 62 -7 75 -34c8 -15 10 -29 6 -45c-5 -25 -24 -45 -49 -51c-37 -9 -74 14 -81 51c-8 36 14 70 49 79z"
         id="glyph177" />
      <glyph
         glyph-name="scripts.ulongfermata"
         unicode=""
         horiz-adv-x="313"
         d="M-309 372l3 3h306h307l2 -3l3 -2v-176c0 -123 0 -178 -1 -180c-2 -8 -10 -14 -18 -14c-4 0 -11 3 -14 6c-5 6 -5 -1 -5 139v130h-274h-274v-130c0 -124 0 -130 -2 -133c-7 -16 -28 -15 -34 0c-2 4 -2 23 -2 181v176zM-16 132c30 7 62 -7 75 -34c8 -15 10 -29 6 -45 c-5 -25 -24 -45 -49 -51c-37 -9 -74 14 -81 51c-8 36 14 70 49 79z"
         id="glyph179" />
      <glyph
         glyph-name="scripts.dlongfermata"
         unicode=""
         horiz-adv-x="313"
         d="M-300 -2c9 4 20 0 24 -9c2 -4 2 -10 2 -134v-130h274h274v130c0 140 0 133 5 139c3 3 10 6 14 6c8 0 16 -6 18 -14c1 -2 1 -57 1 -180v-176l-3 -2l-2 -2l-307 -1h-306l-3 3l-3 3v176c0 158 0 177 2 181c2 5 5 8 10 10zM-16 -2c30 7 62 -7 75 -34c8 -15 10 -29 6 -45 c-5 -25 -24 -45 -49 -51c-37 -9 -74 14 -81 51c-8 36 14 70 49 79z"
         id="glyph181" />
      <glyph
         glyph-name="scripts.uverylongfermata"
         unicode=""
         horiz-adv-x="375"
         d="M-372 397l3 3h369h370l2 -3l3 -2v-189c0 -132 0 -190 -1 -192c-2 -8 -10 -14 -18 -14c-4 0 -11 3 -14 6c-5 6 -5 -1 -5 139v130h-337h-337v-130c0 -124 0 -130 -2 -133c-7 -16 -28 -15 -34 0c-2 4 -2 25 -2 193v189zM-247 222l3 3h244h245l2 -3l3 -2v-101 c0 -70 0 -103 -1 -105c-3 -11 -15 -17 -25 -12c-5 2 -8 5 -10 10c-2 3 -2 8 -2 71v67h-212h-212v-67c0 -63 0 -68 -2 -71c-7 -16 -28 -15 -34 0c-2 3 -2 16 -2 106v101zM-11 120c7 2 23 0 31 -2c24 -9 41 -32 41 -57c0 -26 -16 -49 -41 -58c-7 -2 -9 -2 -20 -2s-13 0 -20 2 c-29 11 -46 41 -39 71c5 23 23 41 48 46z"
         id="glyph183" />
      <glyph
         glyph-name="scripts.dverylongfermata"
         unicode=""
         horiz-adv-x="375"
         d="M-363 -2c9 4 20 0 24 -9c2 -4 2 -10 2 -134v-130h337h337v130c0 140 0 133 5 139c3 3 10 6 14 6c8 0 16 -6 18 -14c1 -2 1 -60 1 -192v-189l-3 -2l-2 -2l-370 -1h-369l-3 3l-3 3v189c0 168 0 189 2 193c2 5 5 8 10 10zM-238 -2c9 4 20 0 24 -9c2 -4 2 -9 2 -72v-67h212 h212v67c0 63 0 68 2 72s5 7 10 9c10 5 22 -1 25 -12c1 -2 1 -35 1 -105v-101l-3 -2l-2 -2l-245 -1h-244l-3 3l-3 3v101c0 90 0 103 2 106c2 5 5 8 10 10zM-11 -1c7 2 23 0 31 -2c24 -9 41 -32 41 -57c0 -26 -16 -49 -41 -58c-7 -2 -9 -2 -20 -2s-13 0 -20 2 c-29 11 -46 41 -39 71c5 23 23 41 48 46z"
         id="glyph185" />
      <glyph
         glyph-name="scripts.thumb"
         unicode=""
         horiz-adv-x="100"
         d="M-18 123c5 1 12 2 17 2c48 0 86 -37 98 -95c3 -16 3 -44 0 -60c-7 -36 -25 -65 -49 -81c-8 -5 -22 -11 -26 -11c-1 0 -1 -1 -1 -7c1 -3 1 -17 2 -29c1 -22 1 -23 -1 -28c-4 -9 -11 -13 -22 -13s-18 4 -22 13c-2 5 -2 6 -1 28c1 12 1 26 2 29c0 6 0 7 -1 7 c-4 0 -18 6 -26 11c-24 16 -42 45 -49 81c-3 16 -3 44 0 60c5 28 17 51 34 68c13 13 28 21 45 25zM16 91c-5 3 -8 3 -14 4c-26 1 -40 -17 -47 -58c-2 -16 -2 -61 1 -77c5 -29 13 -44 28 -51c6 -3 7 -3 16 -3s10 0 16 3c15 7 23 22 28 51c2 10 2 15 2 40s0 30 -2 40 c-5 29 -13 44 -28 51z"
         id="glyph187" />
      <glyph
         glyph-name="scripts.sforzato"
         unicode=""
         horiz-adv-x="225"
         d="M-214 123c2 1 5 2 8 2c2 0 96 -24 208 -53s205 -53 207 -53c1 0 5 -1 7 -2c12 -6 12 -28 0 -34c-2 -1 -6 -2 -7 -2c-2 0 -95 -24 -207 -53s-205 -53 -207 -53c-14 -1 -24 13 -18 27c2 4 5 7 11 9c3 1 60 16 129 34l124 32l68 11c37 6 68 12 68 12s-31 6 -68 12l-68 11 l-124 32c-69 18 -126 33 -129 34c-6 2 -9 5 -11 9c-2 5 -3 11 0 16c2 5 4 7 9 9z"
         id="glyph189" />
      <glyph
         glyph-name="scripts.espr"
         unicode=""
         horiz-adv-x="475"
         d="M-55 124c6 2 15 0 19 -4c1 -1 3 -3 4 -5c4 -10 1 -20 -8 -25c-2 -1 -60 -16 -129 -34l-124 -33l-69 -11c-37 -6 -68 -12 -68 -12s31 -6 68 -12l69 -11l124 -33c69 -18 127 -33 129 -34c4 -2 6 -5 8 -9c6 -13 -4 -27 -18 -26c-2 0 -94 24 -205 53c-110 29 -202 53 -204 53 c-1 0 -5 1 -7 2c-12 6 -12 28 0 34c2 1 6 2 7 2c3 0 397 103 404 105zM41 123c2 1 5 2 8 2c2 0 95 -24 206 -53c110 -29 202 -53 204 -53c1 0 5 -1 7 -2c12 -6 12 -28 0 -34c-2 -1 -6 -2 -7 -2c-2 0 -94 -24 -204 -53c-111 -29 -203 -53 -205 -53c-14 -1 -24 13 -18 26 c2 4 4 7 8 9c2 1 60 16 129 34l125 33l68 11c37 6 68 12 68 12s-31 6 -68 12l-68 11l-125 33c-69 18 -127 33 -129 34s-4 3 -5 4c-5 5 -6 13 -3 20c2 5 4 7 9 9z"
         id="glyph191" />
      <glyph
         glyph-name="scripts.staccato"
         unicode=""
         horiz-adv-x="50"
         d="M-12 49c31 7 62 -17 62 -49c0 -31 -29 -55 -60 -49c-18 4 -34 19 -38 36c-7 27 9 55 36 62z"
         id="glyph193" />
      <glyph
         glyph-name="scripts.ustaccatissimo"
         unicode=""
         horiz-adv-x="50"
         d="M-14 250c25 5 52 -6 62 -25c6 -14 7 -8 -16 -125c-11 -56 -21 -104 -22 -106c-1 -4 -6 -7 -10 -7s-9 3 -10 7c-1 2 -11 50 -22 106c-23 117 -22 111 -16 125c6 12 20 21 34 25z"
         id="glyph195" />
      <glyph
         glyph-name="scripts.dstaccatissimo"
         unicode=""
         horiz-adv-x="50"
         d="M-6 11c2 1 5 2 6 2c4 0 9 -3 10 -7c1 -2 11 -50 22 -106c18 -92 20 -104 20 -110c-3 -33 -45 -51 -79 -35c-10 5 -16 12 -21 20c-6 14 -7 8 16 125c11 56 21 104 22 106c0 2 3 4 4 5z"
         id="glyph197" />
      <glyph
         glyph-name="scripts.tenuto"
         unicode=""
         horiz-adv-x="150"
         d="M-136 20c2 0 54 1 138 1h134l4 -3c6 -5 10 -10 10 -17c0 -8 -4 -13 -10 -18l-4 -2h-136h-136l-4 2c-8 6 -12 15 -9 24c2 4 9 12 13 13z"
         id="glyph199" />
      <glyph
         glyph-name="scripts.uportato"
         unicode=""
         horiz-adv-x="150"
         d="M-13 204c22 7 45 -5 52 -27c10 -31 -20 -61 -51 -51c-13 4 -23 14 -27 27c-7 21 5 44 26 51zM-140 16l4 2h136h136l4 -2c13 -7 13 -25 0 -32l-4 -2h-136h-136l-4 2c-13 7 -13 25 0 32z"
         id="glyph201" />
      <glyph
         glyph-name="scripts.dportato"
         unicode=""
         horiz-adv-x="150"
         d="M-140 16l4 2h136h136l4 -2c13 -7 13 -25 0 -32l-4 -2h-136h-136l-4 2c-13 7 -13 25 0 32zM-13 -126c22 7 45 -5 52 -27s-5 -44 -27 -51s-44 5 -51 27c-7 21 5 44 26 51z"
         id="glyph203" />
      <glyph
         glyph-name="scripts.umarcato"
         unicode=""
         horiz-adv-x="125"
         d="M-7 273c2 1 5 2 7 2s5 -1 7 -2c3 -2 9 -15 61 -130c31 -70 57 -129 57 -130c0 -4 -3 -9 -6 -11s-6 -2 -40 -2c-36 0 -37 0 -40 2s-7 10 -38 79l-34 76l-2 -4c-1 -2 -17 -36 -35 -76c-29 -65 -33 -73 -36 -75c-2 -1 -5 -2 -6 -2c-7 0 -13 6 -13 13c0 1 26 60 57 130 c52 115 58 128 61 130z"
         id="glyph205" />
      <glyph
         glyph-name="scripts.dmarcato"
         unicode=""
         horiz-adv-x="125"
         d="M-119 -2c3 2 6 2 40 2c36 0 37 0 40 -2s7 -10 38 -79l35 -76l1 4c1 2 17 36 35 76c29 65 33 73 36 75c2 1 5 2 6 2c7 0 13 -6 13 -12c0 -2 -24 -56 -57 -131c-52 -115 -58 -128 -61 -130c-4 -3 -10 -3 -14 0c-3 2 -9 15 -61 130c-31 70 -57 129 -57 130c0 4 3 9 6 11z "
         id="glyph207" />
      <glyph
         glyph-name="scripts.open"
         unicode=""
         horiz-adv-x="100"
         d="M-18 123c5 1 12 2 17 2c48 0 86 -37 98 -95c3 -16 3 -44 0 -60c-11 -58 -49 -95 -97 -95s-86 37 -97 95c-3 16 -3 44 0 60c5 28 17 51 34 68c13 13 28 21 45 25zM12 93c-30 8 -54 -12 -64 -51c-13 -53 0 -113 29 -131c14 -8 32 -8 46 0c29 18 42 78 29 131 c-7 28 -22 47 -40 51z"
         id="glyph209" />
      <glyph
         glyph-name="scripts.stopped"
         unicode=""
         horiz-adv-x="138"
         d="M-8 138c9 3 23 -1 29 -9c5 -6 5 -7 5 -57v-46h46c36 0 47 0 50 -1c6 -2 11 -6 14 -12c2 -4 3 -6 3 -12c0 -7 -1 -9 -3 -13c-3 -6 -8 -10 -14 -12c-3 -1 -14 -1 -50 -1h-46v-46c0 -36 0 -47 -1 -50c-2 -6 -6 -11 -12 -14c-4 -2 -6 -2 -12 -2c-7 0 -9 0 -13 2 c-6 3 -10 8 -12 14c-1 3 -1 14 -1 50v46h-46c-36 0 -47 0 -50 1c-6 2 -11 6 -14 12c-2 4 -2 6 -2 13c0 6 0 8 2 12c3 6 8 10 14 12c3 1 14 1 50 1h46v48l1 48l2 4c3 6 8 10 14 12z"
         id="glyph211" />
      <glyph
         glyph-name="scripts.upbow"
         unicode=""
         horiz-adv-x="163"
         d="M-152 518c1 1 4 2 6 2c4 0 12 -4 14 -7c1 -2 22 -67 47 -152l45 -148l20 -81l20 -81l20 81l20 81l45 148c25 85 46 150 47 152c2 3 9 7 14 7c3 0 10 -3 12 -6c3 -2 5 -8 5 -12c0 -1 -32 -109 -72 -240c-39 -131 -72 -241 -73 -246c-1 -4 -3 -9 -4 -11c-2 -3 -7 -5 -14 -5 s-12 2 -14 5c-1 2 -3 7 -4 11c-1 5 -34 115 -73 246c-40 131 -72 239 -72 241c0 3 3 10 6 12c1 1 3 2 5 3z"
         id="glyph213" />
      <glyph
         glyph-name="scripts.downbow"
         unicode=""
         horiz-adv-x="188"
         d="M-184 330l3 3h181h182l2 -3l3 -2v-158c0 -149 0 -159 -2 -162c-3 -5 -6 -7 -13 -7s-10 2 -13 7c-2 3 -2 10 -2 98v94h-157h-157v-94c0 -88 0 -95 -2 -98c-3 -5 -6 -7 -13 -7s-10 2 -13 7c-2 3 -2 13 -2 161v158z"
         id="glyph215" />
      <glyph
         glyph-name="scripts.reverseturn"
         unicode=""
         horiz-adv-x="273"
         d="M-176 131c26 4 54 -3 70 -19s19 -37 9 -58c-4 -8 -13 -17 -21 -21c-11 -6 -26 -8 -39 -6c-14 3 -28 13 -33 25c-4 6 -5 6 -14 3c-23 -9 -37 -27 -39 -51c-1 -25 15 -47 42 -55c6 -2 10 -2 22 -2c11 0 15 0 24 2c23 6 43 17 66 35c13 10 17 14 47 42c56 54 80 73 111 88 c44 23 88 24 129 4c37 -18 64 -52 73 -93c2 -13 2 -40 -1 -54c-13 -59 -54 -99 -105 -103c-23 -1 -45 6 -59 20c-16 16 -19 37 -9 58c4 8 13 17 21 21c11 6 26 8 39 6c14 -3 28 -13 33 -25c4 -6 5 -6 14 -3c23 9 37 27 39 51c1 25 -15 47 -42 55c-6 2 -10 2 -21 2 c-12 0 -16 0 -25 -2c-23 -6 -43 -17 -66 -35c-13 -10 -17 -14 -46 -42c-57 -54 -81 -73 -111 -88c-45 -23 -89 -24 -130 -4c-37 18 -64 52 -73 93c-2 13 -2 40 1 54c12 55 47 93 94 102z"
         id="glyph217" />
      <glyph
         glyph-name="scripts.turn"
         unicode=""
         horiz-adv-x="273"
         d="M-158 130c11 2 34 2 46 0c29 -6 60 -22 93 -48c16 -13 29 -25 62 -56c29 -28 33 -32 46 -42c23 -18 43 -29 66 -35c9 -2 13 -2 25 -2c11 0 15 0 21 2c38 12 53 49 33 83c-6 10 -17 18 -30 23c-9 3 -10 3 -14 -3c-5 -12 -19 -22 -33 -25c-13 -2 -28 0 -39 6 c-8 4 -17 13 -21 21c-10 21 -7 42 9 58c18 18 48 24 78 17c43 -11 75 -49 86 -100c3 -14 3 -41 1 -54c-9 -41 -36 -75 -73 -93c-21 -10 -42 -15 -65 -14s-42 7 -64 18c-31 15 -55 34 -111 88c-30 28 -34 32 -47 42c-23 18 -43 29 -66 35c-9 2 -13 2 -24 2 c-12 0 -16 0 -22 -2c-38 -12 -53 -49 -33 -83c6 -10 17 -18 30 -23c9 -3 10 -3 14 3c5 12 19 22 33 25c13 2 28 0 39 -6c8 -4 17 -13 21 -21c10 -21 7 -42 -9 -58c-18 -18 -48 -24 -78 -17c-43 11 -75 49 -86 100c-3 14 -3 41 -1 54c9 41 36 75 73 93c13 6 25 10 40 12z"
         id="glyph219" />
      <glyph
         glyph-name="scripts.trill"
         unicode=""
         horiz-adv-x="213"
         d="M-17 534c4 3 7 6 7 6l-27 -134l-27 -133l3 2c13 7 63 35 71 38c11 6 26 11 39 14c15 3 40 3 52 0c13 -3 23 -9 31 -17l7 -7l6 5c11 9 21 15 35 19c16 5 34 6 49 3c22 -6 40 -23 45 -45c4 -15 3 -41 -3 -58c-11 -34 -36 -56 -62 -54c-23 2 -36 22 -35 53c1 18 6 30 17 41 c10 10 24 16 39 18l8 1l-7 6c-3 3 -7 7 -10 8c-19 10 -45 5 -62 -12c-12 -12 -10 -2 -41 -157c-15 -76 -27 -138 -28 -138c0 0 -3 1 -6 3c-11 5 -18 6 -33 6s-24 -2 -36 -7l-6 -2c0 1 12 62 27 137c29 148 29 143 24 151c-7 12 -26 17 -41 11c-3 -1 -24 -12 -47 -25l-42 -23 l-3 -15l-3 -16l9 -11c27 -34 39 -62 41 -92c1 -20 -3 -39 -12 -57c-8 -17 -25 -38 -39 -47c-8 -5 -21 -12 -28 -14c-9 -2 -22 -2 -29 -1c-27 6 -44 35 -46 82c-1 20 1 32 11 80c4 23 8 43 8 43s-4 -1 -10 -3c-20 -8 -44 -15 -64 -19c-15 -2 -40 -2 -49 0 c-21 6 -34 19 -37 38c-3 15 1 34 10 50c6 9 18 21 29 27c28 16 67 18 102 6c8 -2 28 -12 33 -15l3 -2l22 115c13 63 23 115 24 116c0 0 3 0 7 -2c7 -2 9 -2 16 -2c14 1 26 6 42 16c5 4 12 9 16 13zM-202 274c-9 3 -14 3 -25 4c-16 0 -23 -1 -34 -4c-23 -8 -37 -28 -36 -50 c1 -14 9 -22 26 -26c14 -3 45 1 75 11c10 3 37 14 39 15c1 1 3 6 4 13l3 12l-4 3c-13 10 -31 18 -48 22zM-74 165c-10 15 -8 18 -16 -22c-9 -47 -10 -54 -10 -73c0 -14 0 -17 2 -21c3 -10 12 -12 22 -7c7 3 11 8 16 18c15 32 11 70 -14 105z"
         id="glyph221" />
      <glyph
         glyph-name="scripts.upedalheel"
         unicode=""
         horiz-adv-x="125"
         d="M-113 165c9 4 20 0 24 -9c2 -4 2 -9 2 -84s0 -81 2 -90c2 -10 7 -22 12 -31c6 -7 17 -18 24 -24c27 -17 60 -19 89 -4c24 12 41 35 46 62c1 4 1 35 1 85c0 52 0 81 1 83c2 8 10 14 18 14c4 0 11 -3 14 -6c5 -6 5 -3 5 -90s0 -90 -6 -109c-11 -33 -34 -59 -65 -75 c-35 -16 -73 -16 -107 0c-27 13 -46 32 -59 59c-7 13 -9 22 -12 36c-2 15 -2 167 1 173c2 5 5 8 10 10z"
         id="glyph223" />
      <glyph
         glyph-name="scripts.dpedalheel"
         unicode=""
         horiz-adv-x="125"
         d="M-18 124c16 2 36 1 53 -4c10 -3 28 -11 37 -18c22 -16 39 -39 47 -64c6 -19 6 -22 6 -109s0 -84 -5 -90c-3 -3 -10 -6 -14 -6c-8 0 -16 6 -18 14c-1 2 -1 31 -1 83c0 50 0 81 -1 85c-5 27 -22 50 -46 62c-35 17 -75 11 -102 -15c-12 -13 -20 -27 -23 -44 c-2 -9 -2 -15 -2 -89c0 -76 0 -81 -2 -84c-7 -16 -28 -15 -34 0c-3 6 -3 158 -1 173c3 14 5 23 11 36c13 26 32 45 59 58c12 6 22 9 36 12z"
         id="glyph225" />
      <glyph
         glyph-name="scripts.upedaltoe"
         unicode=""
         horiz-adv-x="125"
         d="M-113 373c4 2 9 2 14 0c4 -2 7 -4 9 -8c1 -2 16 -50 34 -106l33 -103l11 -51c6 -27 12 -50 12 -50s6 23 12 50l11 51l33 103c18 56 33 104 34 106s3 4 4 5c2 3 8 5 12 5s11 -3 14 -6c2 -3 5 -9 5 -13c0 -1 -24 -77 -53 -170c-29 -92 -53 -168 -53 -170c0 -1 -1 -5 -2 -7 c-6 -12 -28 -12 -34 0c-1 2 -2 6 -2 7c0 2 -24 78 -53 170c-29 93 -53 169 -53 170c0 4 3 10 5 13c2 1 4 3 7 4z"
         id="glyph227" />
      <glyph
         glyph-name="scripts.dpedaltoe"
         unicode=""
         horiz-adv-x="125"
         d="M-10 -2c3 1 6 2 10 2c8 0 14 -3 17 -9c1 -2 2 -6 2 -7c0 -2 24 -78 53 -170c29 -93 53 -169 53 -170c0 -2 -1 -5 -2 -7c-6 -15 -26 -16 -33 -2c-1 2 -16 50 -34 107l-33 103l-11 50c-6 27 -12 50 -12 50s-6 -23 -12 -50l-11 -50l-33 -103c-18 -57 -33 -105 -34 -107 s-3 -4 -4 -5c-2 -3 -8 -5 -12 -5s-11 3 -14 6c-2 3 -5 9 -5 13c0 1 24 77 53 170c29 92 53 168 53 170c0 5 4 11 9 14z"
         id="glyph229" />
      <glyph
         glyph-name="scripts.flageolet"
         unicode=""
         horiz-adv-x="133"
         d="M-14 133c4 0 34 -1 41 -2c26 -6 49 -19 67 -37c19 -19 31 -41 37 -68c1 -6 1 -13 1 -26c0 -19 -1 -27 -6 -42c-15 -46 -52 -78 -100 -89c-12 -2 -40 -2 -52 0c-27 6 -50 19 -68 37c-19 19 -31 41 -37 68c-2 12 -2 40 0 52c6 27 18 49 37 68s45 33 71 37c4 1 8 1 9 2z M15 111c-20 3 -42 0 -60 -8c-25 -11 -48 -35 -59 -60c-5 -15 -7 -25 -7 -43s2 -28 7 -43c13 -31 42 -57 74 -65c41 -10 81 0 110 30c15 15 24 32 29 53c3 13 3 37 0 50c-5 21 -14 38 -29 53c-19 19 -39 29 -65 33z"
         id="glyph231" />
      <glyph
         glyph-name="scripts.segno"
         unicode=""
         d="M-123 374c11 2 35 0 47 -2c26 -6 47 -18 67 -38c21 -21 35 -46 41 -77c3 -14 3 -39 1 -49c-6 -22 -19 -35 -38 -39c-40 -7 -69 15 -72 56c-2 29 12 56 32 66c4 2 7 3 7 3c1 1 -5 13 -9 20c-15 22 -43 34 -69 30c-9 -2 -23 -8 -30 -15c-11 -9 -19 -23 -23 -38 c-3 -11 -3 -35 0 -52c11 -59 51 -110 123 -159c15 -10 44 -28 46 -28l94 160c52 88 95 160 95 161c1 2 4 2 31 2h30l-102 -174l-102 -174s2 -2 4 -3c14 -7 41 -24 56 -34c84 -55 129 -112 141 -176c2 -10 2 -16 2 -33c0 -18 0 -22 -2 -33c-2 -7 -4 -17 -6 -22 c-23 -64 -79 -104 -142 -101c-35 2 -65 16 -90 41c-21 21 -35 46 -41 77c-3 14 -3 39 -1 49c6 22 19 35 38 39c40 7 69 -15 72 -56c2 -29 -12 -56 -32 -66c-4 -2 -7 -3 -7 -3c-1 -1 5 -13 9 -20c15 -22 43 -34 69 -30c9 2 23 8 30 15c11 9 19 23 23 38c3 11 3 35 0 52 c-11 59 -51 110 -123 159c-15 10 -44 28 -46 28l-94 -160c-52 -88 -95 -160 -95 -161c-1 -2 -4 -2 -31 -2l-30 1l102 173l102 174s-2 2 -4 3c-14 7 -41 24 -55 34c-85 55 -130 112 -142 177c-2 9 -2 15 -2 32c0 18 0 22 2 33c5 23 12 40 25 59c8 13 23 28 34 37 c19 13 42 23 65 26zM162 78c14 5 30 -1 37 -15c2 -5 3 -7 3 -13c0 -7 -1 -9 -3 -14c-4 -6 -8 -10 -14 -13s-20 -3 -26 0c-16 9 -22 28 -12 43c3 6 9 10 15 12zM-182 -22c14 5 30 -1 37 -15c2 -5 3 -7 3 -13c0 -7 -1 -9 -3 -14c-4 -6 -8 -10 -14 -13s-20 -3 -26 0 c-16 9 -22 28 -12 43c3 6 9 10 15 12z"
         id="glyph233" />
      <glyph
         glyph-name="scripts.coda"
         unicode=""
         horiz-adv-x="254"
         d="M-7 351c4 3 12 2 16 -1c6 -4 6 -4 6 -55v-46l9 -1c52 -10 94 -50 119 -114c12 -29 20 -68 22 -99c1 -5 1 -12 2 -15v-5h45c50 0 50 0 54 -6c3 -4 3 -14 0 -18c-4 -6 -4 -6 -54 -6h-45v-5c-1 -3 -1 -10 -2 -14c-2 -32 -10 -71 -22 -100c-25 -64 -67 -104 -119 -114l-9 -1 v-46c0 -51 0 -51 -6 -55c-4 -3 -14 -3 -18 0c-6 4 -6 4 -6 55v46l-9 1c-52 10 -94 50 -119 114c-12 29 -20 68 -22 100c-1 4 -1 11 -2 14v5h-45c-41 0 -46 0 -49 2c-5 3 -7 6 -7 13s2 10 7 13c3 2 8 2 49 2h45v5c1 3 1 10 2 15c2 31 10 70 22 99c25 64 67 104 119 114l9 1 v48c0 46 1 47 3 50c1 1 3 3 5 4zM-15 117c0 56 0 102 -1 102c-3 0 -16 -5 -21 -7c-37 -21 -53 -70 -56 -172v-25h39h39v102zM26 216c-4 1 -8 2 -9 3c-2 0 -2 -5 -2 -102v-102h39h39v25c-2 48 -5 78 -12 105c-10 39 -29 63 -55 71zM-15 -117v102h-39h-39v-25 c3 -78 11 -120 31 -149c11 -16 23 -24 45 -30c2 0 2 5 2 102zM93 -40v25h-39h-39v-102c0 -97 0 -102 2 -102c22 6 34 14 45 30c20 29 28 71 31 149z"
         id="glyph235" />
      <glyph
         glyph-name="scripts.varcoda"
         unicode=""
         horiz-adv-x="254"
         d="M-7 351c4 3 12 2 16 -1c6 -4 6 -4 6 -54v-46h73h74l2 -3l3 -2v-115v-115h45c50 0 50 0 54 -6c3 -4 3 -14 0 -18c-4 -6 -4 -6 -54 -6h-45v-115v-114l-3 -3l-3 -3h-73h-73v-46c0 -50 0 -50 -6 -54c-4 -3 -14 -3 -18 0c-6 4 -6 4 -6 54v46h-73l-74 1l-2 2l-2 2l-1 115v115 h-45c-41 0 -46 0 -49 2c-5 3 -7 6 -7 13s2 10 7 13c3 2 8 2 49 2h45v115v114l3 3l3 3h73h73v47c0 46 1 47 3 50c1 1 3 3 5 4zM-15 118v102h-32h-32v-102v-103h32h32v103zM79 118v102h-32h-32v-102v-103h32h32v103zM-15 -117v102h-32h-32v-102v-103h32h32v103zM79 -117v102 h-32h-32v-102v-103h32h32v103z"
         id="glyph237" />
      <glyph
         glyph-name="scripts.rcomma"
         unicode=""
         horiz-adv-x="125"
         d="M47 156c6 1 17 0 23 -2c22 -8 42 -54 42 -95c0 -51 -24 -111 -75 -187c-7 -11 -15 -21 -16 -22c-4 -3 -12 -4 -16 -1c-5 3 -8 6 -7 13c0 5 0 6 8 18c16 24 31 58 37 84c13 50 7 94 -17 132c-6 10 -8 17 -8 26c2 16 14 30 29 34z"
         id="glyph239" />
      <glyph
         glyph-name="scripts.lcomma"
         unicode=""
         horiz-adv-x="0"
         d="M-19 152c4 1 12 1 16 -2s6 -8 6 -13c-1 -4 -2 -7 -9 -17c-16 -24 -31 -58 -37 -84c-13 -50 -7 -94 17 -132c6 -10 8 -17 8 -26c-1 -13 -10 -26 -22 -32c-6 -2 -8 -2 -15 -2c-13 0 -19 2 -27 10c-9 9 -20 29 -25 48c-16 58 5 127 65 218c16 25 20 30 23 32z"
         id="glyph241" />
      <glyph
         glyph-name="scripts.rvarcomma"
         unicode=""
         horiz-adv-x="63"
         d="M52 187c2 0 7 1 11 1c15 -1 27 -9 33 -22c3 -6 4 -7 4 -15v-9l-28 -55c-96 -194 -122 -246 -126 -249c-6 -5 -16 -3 -20 3c-5 7 -7 -1 49 169c29 86 54 159 55 161c5 8 13 14 22 16z"
         id="glyph243" />
      <glyph
         glyph-name="scripts.lvarcomma"
         unicode=""
         horiz-adv-x="63"
         d="M56 163c6 3 14 2 18 -4c5 -7 7 1 -49 -169c-29 -86 -54 -159 -55 -161c-4 -6 -9 -11 -16 -14c-5 -2 -7 -2 -15 -2c-9 0 -10 0 -16 3c-4 1 -9 5 -11 7c-9 8 -14 23 -11 33c1 5 146 298 150 303c1 1 3 3 5 4z"
         id="glyph245" />
      <glyph
         glyph-name="scripts.arpeggio"
         unicode=""
         horiz-adv-x="200"
         d="M45 304c5 3 10 2 15 -1c2 -2 34 -27 70 -58c74 -61 72 -59 71 -71c0 -6 0 -9 -2 -13c-7 -12 -16 -21 -43 -44c-25 -21 -31 -28 -37 -40c-11 -22 -11 -45 1 -67c5 -10 7 -12 25 -27s20 -17 19 -25c-1 -7 -8 -14 -16 -14c-2 0 -5 1 -8 3c-2 2 -34 27 -70 58 c-70 59 -71 59 -72 69c-1 14 8 26 46 59c12 11 25 22 27 25c7 8 15 23 17 34c3 16 0 33 -8 48c-5 10 -7 12 -25 27c-12 10 -17 14 -18 17c-3 7 1 17 8 20z"
         id="glyph247" />
      <glyph
         glyph-name="scripts.trill_element"
         unicode=""
         d="M68 201c5 2 14 1 21 -2c12 -6 21 -15 44 -43c21 -25 28 -31 40 -37c22 -11 45 -11 67 1c10 5 12 7 27 25s17 20 25 19c7 -1 14 -8 14 -16c0 -2 -1 -5 -3 -8c-2 -2 -27 -34 -58 -70c-59 -70 -59 -71 -69 -72c-14 -1 -26 8 -59 46c-11 12 -22 25 -25 27c-8 7 -23 15 -34 17 c-16 3 -33 0 -48 -8c-10 -5 -12 -7 -27 -25c-10 -12 -14 -17 -17 -18c-13 -5 -27 10 -20 22c3 5 113 136 116 138c2 1 4 3 6 4z"
         id="glyph249" />
      <glyph
         glyph-name="scripts.arpeggio.arrow.M1"
         unicode=""
         horiz-adv-x="200"
         d="M45 305c4 2 9 2 13 1c3 -2 93 -99 98 -106c4 -7 8 -15 11 -25l2 -7l13 6l42 21c28 13 29 13 32 12c4 -2 5 -6 3 -10c-2 -5 -18 -22 -52 -57s-44 -46 -57 -62c-18 -22 -34 -49 -42 -69c-3 -8 -4 -9 -9 -9c-3 0 -4 1 -8 13c-17 39 -37 65 -102 132c-25 25 -43 45 -47 51 c-1 1 -2 3 -2 5c0 3 4 7 7 7c1 0 21 -9 45 -21c23 -11 45 -21 48 -23l5 -2l13 16c16 18 22 26 26 35c3 7 4 16 2 22s-16 21 -33 35c-9 7 -14 12 -15 15c-4 7 0 17 7 20z"
         id="glyph251" />
      <glyph
         glyph-name="scripts.arpeggio.arrow.1"
         unicode=""
         horiz-adv-x="200"
         d="M96 249c1 1 3 1 5 1c3 0 3 -1 8 -12c17 -40 37 -66 102 -132c25 -26 43 -46 47 -52c1 -1 2 -3 2 -5c0 -3 -4 -7 -7 -7c-1 0 -21 9 -45 21c-23 11 -45 21 -48 23l-5 2l-13 -16c-16 -18 -22 -26 -26 -35c-3 -7 -4 -16 -2 -22s16 -21 33 -35c14 -11 17 -15 17 -21 c0 -10 -12 -19 -21 -15c-3 1 -93 98 -99 106c-4 7 -8 15 -11 25l-2 7l-13 -6l-42 -21c-28 -13 -29 -13 -32 -12c-4 2 -5 6 -3 10c2 5 18 22 52 57s44 46 57 62c17 22 33 48 41 68c2 4 4 8 5 9z"
         id="glyph253" />
      <glyph
         glyph-name="scripts.trilelement"
         unicode=""
         horiz-adv-x="104"
         d="M-42 123c2 1 6 2 8 2c10 0 9 1 63 -65l50 -61l4 6l4 6l3 -2l30 -20c0 -1 -71 -107 -73 -109c-3 -3 -9 -5 -13 -5c-10 0 -9 -1 -63 65l-50 61l-4 -6l-4 -6l-3 2l-30 20c0 1 71 107 73 109c1 1 3 3 5 3z"
         id="glyph255" />
      <glyph
         glyph-name="scripts.prall"
         unicode=""
         horiz-adv-x="208"
         d="M-146 123c2 1 6 2 8 2c10 0 9 1 63 -65l51 -61l39 59c21 33 40 60 41 61c2 3 9 6 14 6c10 0 9 1 63 -65l50 -61l15 22c7 12 15 23 17 26c7 9 21 11 30 3c5 -5 7 -15 5 -22c-1 -3 -94 -143 -97 -147c-3 -3 -10 -6 -15 -6c-10 0 -9 -1 -63 65l-50 61l-40 -59 c-21 -33 -40 -60 -41 -61c-2 -3 -9 -6 -14 -6c-10 0 -9 -1 -63 65l-50 61l-15 -22c-7 -12 -15 -23 -17 -25c-9 -13 -28 -11 -34 3c-2 5 -2 11 -1 15c1 3 94 143 97 147c2 1 4 3 7 4z"
         id="glyph257" />
      <glyph
         glyph-name="scripts.mordent"
         unicode=""
         horiz-adv-x="208"
         d="M-8 165c9 4 20 1 26 -8l3 -4v-43v-42l17 25c9 14 18 26 19 27c3 3 9 5 13 5c10 0 9 1 63 -65l50 -61l15 22c7 12 15 23 17 26c9 12 28 10 34 -4c2 -5 2 -11 1 -15c-1 -3 -94 -143 -97 -147c-3 -3 -10 -6 -15 -6c-10 0 -9 -1 -63 65c-49 59 -50 61 -52 59 c-1 -2 -2 -12 -2 -77v-75l-3 -4c-5 -6 -10 -9 -17 -9c-8 0 -13 3 -18 9l-2 4l-1 43v43l-17 -25c-9 -14 -18 -27 -19 -28c-4 -3 -9 -5 -14 -5c-10 0 -9 -1 -63 65l-50 61l-15 -22c-7 -12 -15 -23 -17 -25c-9 -13 -28 -11 -34 3c-2 5 -2 11 -1 15c1 3 94 143 97 147 c3 3 10 6 15 6c10 0 9 1 63 -65l50 -61l3 4l2 3v71c0 43 0 73 1 75c1 5 6 10 11 13z"
         id="glyph259" />
      <glyph
         glyph-name="scripts.prallprall"
         unicode=""
         horiz-adv-x="313"
         d="M-250 123c2 1 6 2 8 2c10 0 9 1 63 -65l51 -61l39 59c21 33 40 60 41 61c2 3 9 6 14 6c10 0 9 1 63 -65l51 -61l39 59c21 33 40 60 41 61c2 3 9 6 14 6c10 0 9 1 63 -65l50 -61l15 22c7 12 15 23 17 26c9 12 28 10 34 -4c2 -5 2 -11 1 -15c-1 -3 -94 -143 -97 -147 c-3 -3 -10 -6 -15 -6c-10 0 -9 -1 -63 65l-50 61l-40 -59c-21 -33 -40 -60 -41 -61c-2 -3 -9 -6 -14 -6c-10 0 -9 -1 -63 65l-50 61l-40 -59c-21 -33 -40 -60 -41 -61c-2 -3 -9 -6 -14 -6c-10 0 -9 -1 -63 65l-50 61l-15 -22c-7 -12 -15 -23 -17 -25c-9 -13 -28 -11 -34 3 c-2 5 -2 11 -1 15c1 3 94 143 97 147c2 1 4 3 7 4z"
         id="glyph261" />
      <glyph
         glyph-name="scripts.prallmordent"
         unicode=""
         horiz-adv-x="313"
         d="M96 165c9 4 20 1 26 -8l3 -4v-43v-42l17 25c9 14 18 26 19 27c3 3 9 5 13 5c10 0 9 1 63 -65l50 -61l15 22c7 12 15 23 17 26c9 12 28 10 34 -4c2 -5 2 -11 1 -15c-1 -3 -94 -143 -97 -147c-3 -3 -10 -6 -15 -6c-10 0 -9 -1 -63 65c-49 59 -50 61 -52 59 c-1 -2 -2 -12 -2 -77v-75l-3 -4c-5 -6 -10 -9 -17 -9c-8 0 -13 3 -18 9l-2 4l-1 43v43l-17 -25c-9 -14 -18 -27 -19 -28c-4 -3 -9 -5 -14 -5c-10 0 -9 -1 -63 65l-50 61l-40 -59c-21 -33 -40 -60 -41 -61c-2 -3 -9 -6 -14 -6c-10 0 -9 -1 -63 65l-50 61l-15 -22 c-7 -12 -15 -23 -17 -25c-7 -10 -21 -12 -30 -4c-5 5 -7 15 -5 22c1 3 94 143 97 147c3 3 10 6 15 6c10 0 9 1 63 -65l51 -61l39 59c21 33 40 60 41 61c2 3 9 6 14 6c10 0 9 1 63 -65l50 -61l3 4l2 3v71c0 43 0 73 1 75c1 5 6 10 11 13z"
         id="glyph263" />
      <glyph
         glyph-name="scripts.upprall"
         unicode=""
         horiz-adv-x="313"
         d="M-250 123c2 1 6 2 8 2c10 0 9 1 63 -65l51 -61l39 59c21 33 40 60 41 61c2 3 9 6 14 6c10 0 9 1 63 -65l51 -61l39 59c21 33 40 60 41 61c2 3 9 6 14 6c10 0 9 1 63 -65l50 -61l15 22c7 12 15 23 17 26c9 12 28 10 34 -4c2 -5 2 -11 1 -15c-1 -3 -94 -143 -97 -147 c-3 -3 -10 -6 -15 -6c-10 0 -9 -1 -63 65l-50 61l-40 -59c-21 -33 -40 -60 -41 -61c-2 -3 -9 -6 -14 -6c-10 0 -9 -1 -63 65l-50 61l-40 -59c-21 -33 -40 -60 -41 -61c-2 -3 -9 -6 -14 -6c-10 0 -9 -1 -63 65l-50 61l-6 -9c-4 -5 -12 -18 -19 -29c-15 -22 -19 -30 -25 -44 c-6 -15 -10 -29 -13 -45s-3 -49 -1 -64c5 -30 14 -52 30 -78c5 -9 6 -12 7 -16c0 -7 -3 -13 -9 -17c-4 -3 -5 -3 -11 -3c-9 -1 -13 2 -21 14c-13 19 -24 47 -31 71c-5 21 -6 34 -6 59c0 26 1 38 7 62c9 34 17 49 59 113l51 77c9 13 17 26 18 27c2 1 4 3 7 4z"
         id="glyph265" />
      <glyph
         glyph-name="scripts.upmordent"
         unicode=""
         horiz-adv-x="313"
         d="M96 165c9 4 20 1 26 -8l3 -4v-43v-42l17 25c9 14 18 26 19 27c3 3 9 5 13 5c10 0 9 1 63 -65l50 -61l15 22c7 12 15 23 17 26c9 12 28 10 34 -4c2 -5 2 -11 1 -15c-1 -3 -94 -143 -97 -147c-3 -3 -10 -6 -15 -6c-10 0 -9 -1 -63 65c-49 59 -50 61 -52 59 c-1 -2 -2 -12 -2 -77v-75l-3 -4c-5 -6 -10 -9 -17 -9c-8 0 -13 3 -18 9l-2 4l-1 43v43l-17 -25c-9 -14 -18 -27 -19 -28c-4 -3 -9 -5 -14 -5c-10 0 -9 -1 -63 65l-50 61l-40 -59c-21 -33 -40 -60 -41 -61c-2 -3 -9 -6 -14 -6c-10 0 -9 -1 -63 65l-50 61l-6 -9 c-4 -5 -12 -18 -19 -29c-15 -22 -19 -30 -25 -44c-6 -15 -10 -29 -13 -45s-3 -49 -1 -64c5 -30 14 -52 30 -78c5 -9 6 -12 7 -16c0 -7 -3 -13 -9 -17c-4 -3 -5 -3 -11 -3c-9 -1 -13 2 -21 14c-13 19 -24 47 -31 71c-5 21 -6 34 -6 59c0 26 1 38 7 62c9 34 17 49 59 113 c19 28 42 63 51 78c10 14 19 26 20 27c3 3 9 5 13 5c10 0 9 1 63 -65l51 -61l39 59c21 33 40 60 41 61c2 3 9 6 14 6c10 0 9 1 63 -65l50 -61l3 4l2 3v71c0 43 0 73 1 75c1 5 6 10 11 13z"
         id="glyph267" />
      <glyph
         glyph-name="scripts.pralldown"
         unicode=""
         horiz-adv-x="313"
         d="M-183 123c8 3 18 2 23 -4c1 -1 20 -28 41 -61l40 -59l50 61c54 66 53 65 63 65c5 0 12 -3 14 -6c1 -1 20 -28 41 -61l40 -59l50 61c54 66 53 65 63 65c4 0 10 -2 13 -5c1 -1 10 -13 20 -27c9 -15 32 -50 51 -78c42 -64 50 -79 59 -113c6 -24 7 -36 7 -62 c0 -25 -1 -38 -6 -59c-7 -24 -18 -52 -31 -71c-8 -12 -12 -15 -21 -14c-6 0 -7 0 -11 3c-6 4 -9 10 -9 17c1 4 2 7 7 16c16 26 25 48 30 78c2 15 2 48 -1 64s-7 30 -13 45c-6 14 -10 22 -25 44c-7 11 -15 24 -19 29l-6 9l-50 -61c-54 -66 -53 -65 -63 -65c-5 0 -12 3 -14 6 c-1 1 -20 28 -41 61l-39 59l-51 -61c-54 -66 -53 -65 -63 -65c-5 0 -12 3 -14 6c-1 1 -20 28 -41 61l-39 59l-51 -61c-54 -66 -53 -65 -63 -65c-5 0 -12 3 -15 6c-3 4 -96 144 -97 147c-1 4 -1 10 1 15c6 14 25 16 34 4c2 -3 10 -14 17 -26l15 -22l50 61c42 51 51 62 54 63z "
         id="glyph269" />
      <glyph
         glyph-name="scripts.downprall"
         unicode=""
         horiz-adv-x="313"
         d="M-343 234c9 5 22 1 27 -9c4 -8 3 -13 -5 -26c-4 -6 -9 -14 -11 -18c-20 -41 -26 -88 -16 -133c3 -18 13 -45 15 -43l38 57c21 31 39 57 40 58c3 3 9 5 13 5c10 0 9 1 63 -65l51 -61l39 59c21 33 40 60 41 61c2 3 9 6 14 6c10 0 9 1 63 -65l51 -61l39 59 c21 33 40 60 41 61c2 3 9 6 14 6c10 0 9 1 63 -65l50 -61l15 22c7 12 15 23 17 26c9 12 28 10 34 -4c2 -5 2 -11 1 -15c-1 -3 -94 -143 -97 -147c-3 -3 -10 -6 -15 -6c-10 0 -9 -1 -63 65l-50 61l-40 -59c-21 -33 -40 -60 -41 -61c-2 -3 -9 -6 -14 -6c-10 0 -9 -1 -63 65 l-50 61l-40 -59c-21 -33 -40 -60 -41 -61c-2 -3 -9 -6 -14 -6c-10 0 -9 -1 -63 65l-50 61l-15 -22c-18 -28 -19 -29 -24 -32c-8 -4 -18 -2 -24 4c-3 4 -12 20 -19 34c-34 72 -31 157 8 226c8 14 13 20 18 23z"
         id="glyph271" />
      <glyph
         glyph-name="scripts.downmordent"
         unicode=""
         horiz-adv-x="313"
         d="M-343 234c9 5 22 1 27 -9c4 -8 3 -13 -5 -26c-4 -6 -9 -14 -11 -18c-20 -41 -26 -88 -16 -133c3 -18 13 -45 15 -43l38 57c21 31 39 57 40 58c3 3 9 5 13 5c10 0 9 1 63 -65l51 -61l39 59c21 33 40 60 41 61c2 3 9 6 14 6c10 0 9 1 63 -65l50 -61l3 3l2 4v73l1 74l2 4 c5 6 10 10 17 10c8 0 13 -4 18 -10l3 -4v-43v-42l17 25c9 14 18 26 19 27c3 3 9 5 13 5c10 0 9 1 63 -65l50 -61l15 22c7 12 15 23 17 26c9 12 28 10 34 -4c2 -5 2 -11 1 -15c-1 -3 -94 -143 -97 -147c-3 -3 -10 -6 -15 -6c-10 0 -9 -1 -63 65c-49 59 -50 61 -52 59 c-1 -2 -2 -12 -2 -77v-75l-3 -4c-5 -6 -10 -9 -17 -9c-8 0 -13 3 -18 9l-2 4l-1 43v43l-17 -25c-9 -14 -18 -27 -19 -28c-4 -3 -9 -5 -14 -5c-10 0 -9 -1 -63 65l-50 61l-40 -59c-21 -33 -40 -60 -41 -61c-2 -3 -9 -6 -14 -6c-10 0 -9 -1 -63 65l-50 61l-15 -22 c-18 -28 -19 -29 -24 -32c-8 -4 -18 -2 -24 4c-3 4 -12 20 -19 34c-34 72 -31 157 8 226c8 14 13 20 18 23z"
         id="glyph273" />
      <glyph
         glyph-name="scripts.prallup"
         unicode=""
         horiz-adv-x="313"
         d="M328 235c9 3 17 0 23 -8c10 -13 22 -37 29 -58c20 -60 16 -127 -11 -184c-7 -14 -16 -30 -19 -34c-6 -6 -16 -8 -24 -4c-5 3 -6 4 -24 32l-15 22l-50 -61c-54 -66 -53 -65 -63 -65c-5 0 -12 3 -14 6c-1 1 -20 28 -41 61l-39 59l-51 -61c-54 -66 -53 -65 -63 -65 c-5 0 -12 3 -14 6c-1 1 -20 28 -41 61l-39 59l-51 -61c-54 -66 -53 -65 -63 -65c-5 0 -12 3 -15 6c-3 4 -96 144 -97 147c-1 4 -1 10 1 15c6 14 25 16 34 4c2 -3 10 -14 17 -26l15 -22l50 61c54 66 53 65 63 65c5 0 12 -3 14 -6c1 -1 20 -28 41 -61l40 -59l50 61 c54 66 53 65 63 65c5 0 12 -3 14 -6c1 -1 20 -28 41 -61l40 -59l50 61c54 66 53 65 63 65c4 0 10 -2 13 -5c1 -1 19 -27 40 -58l38 -57c2 -2 12 25 15 43c11 53 2 103 -27 151c-7 13 -9 18 -5 25c2 5 7 10 12 11z"
         id="glyph275" />
      <glyph
         glyph-name="scripts.lineprall"
         unicode=""
         horiz-adv-x="313"
         d="M-343 484c9 4 20 1 26 -8l3 -4v-219l1 -219l27 41c15 23 28 43 29 44c3 3 10 6 15 6c10 0 9 1 63 -65l51 -61l39 59c21 33 40 60 41 61c2 3 9 6 14 6c10 0 9 1 63 -65l51 -61l39 59c21 33 40 60 41 61c2 3 9 6 14 6c10 0 9 1 63 -65l50 -61l15 22c7 12 15 23 17 26 c9 12 28 10 34 -4c2 -5 2 -11 1 -15c-1 -3 -94 -143 -97 -147c-3 -3 -10 -6 -15 -6c-10 0 -9 -1 -63 65l-50 61l-40 -59c-21 -33 -40 -60 -41 -61c-2 -3 -9 -6 -14 -6c-10 0 -9 -1 -63 65l-50 61l-40 -59c-21 -33 -40 -60 -41 -61c-2 -3 -9 -6 -14 -6c-10 0 -9 -1 -63 65 l-50 61l-15 -22c-7 -12 -15 -23 -17 -25c-9 -13 -28 -11 -34 3c-2 3 -2 13 -2 257c0 161 0 255 1 257c1 5 6 10 11 13z"
         id="glyph277" />
      <glyph
         glyph-name="scripts.caesura"
         unicode=""
         horiz-adv-x="500"
         d="M122 311c3 0 7 1 11 1c12 -1 22 -8 27 -19c3 -6 3 -19 0 -48c-13 -129 -50 -263 -115 -413c-11 -26 -12 -28 -19 -30c-5 -2 -11 -2 -15 0c-5 2 -7 4 -9 9c-3 7 -2 10 5 29c51 123 79 253 92 429c2 17 2 20 4 25c4 9 10 14 19 17zM272 311c3 0 7 1 11 1 c12 -1 22 -8 27 -19c3 -6 3 -19 0 -48c-13 -129 -50 -263 -115 -413c-11 -26 -12 -28 -19 -30c-5 -2 -11 -2 -15 0c-5 2 -7 4 -9 9c-3 7 -2 10 5 29c51 123 79 253 92 429c2 17 2 20 4 25c4 9 10 14 19 17z"
         id="glyph279" />
      <glyph
         glyph-name="flags.u3"
         unicode=""
         horiz-adv-x="225"
         d="M-17 -125v125h9h8v-6c0 -25 7 -62 17 -92c15 -45 34 -83 84 -163c37 -60 50 -82 65 -112c20 -41 33 -77 39 -113c10 -61 0 -143 -26 -222c-8 -24 -12 -34 -15 -37s-12 -7 -16 -7c-5 0 -14 3 -17 7c-4 3 -7 11 -7 15c0 3 2 8 4 14c19 44 32 95 37 142c2 18 2 47 1 59 c-8 71 -53 146 -151 249l-15 16h-9h-8v125z"
         id="glyph281" />
      <glyph
         glyph-name="flags.u4"
         unicode=""
         horiz-adv-x="225"
         d="M-17 -250v250h8h9v-12c3 -39 14 -78 36 -119c15 -28 28 -50 66 -104l36 -54c43 -67 63 -119 65 -172c1 -32 -5 -64 -18 -92c-2 -5 -4 -11 -4 -12c0 -2 2 -9 5 -15c11 -24 19 -56 22 -83c2 -15 1 -44 -2 -64c-4 -42 -16 -84 -34 -128c-6 -13 -9 -16 -15 -20 c-7 -3 -11 -3 -18 0c-7 2 -10 6 -13 12c-3 7 -3 10 4 24c20 43 32 88 36 132c3 41 -3 72 -21 109c-15 30 -33 56 -64 92c-12 13 -61 63 -74 74l-7 6v-37v-37h-8h-9v250zM69 -283c-6 7 -24 26 -40 42l-29 29v-6c0 -9 2 -27 5 -40c4 -25 13 -48 26 -76c16 -31 32 -55 76 -117 c14 -20 30 -44 36 -52l10 -15l2 6c4 16 5 24 5 43c0 12 0 20 -1 27c-10 50 -37 98 -90 159z"
         id="glyph283" />
      <glyph
         glyph-name="flags.u5"
         unicode=""
         horiz-adv-x="209"
         d="M-17 -375v375h8h9v-12c3 -56 23 -109 69 -182l29 -46c34 -53 49 -77 62 -105c16 -34 26 -63 31 -96c2 -16 2 -50 0 -63c-3 -14 -7 -29 -12 -41l-4 -11l5 -13c11 -24 17 -44 21 -68c2 -16 2 -50 -1 -67c-4 -22 -10 -44 -17 -60c-2 -3 -3 -7 -3 -8c0 0 3 -7 6 -13 c17 -37 24 -71 23 -110c-2 -52 -14 -105 -37 -155c-7 -15 -8 -17 -15 -21c-7 -3 -11 -3 -18 0c-7 2 -10 6 -13 12c-3 7 -3 11 3 23c21 41 33 84 37 128c3 36 -2 65 -18 97c-17 33 -39 62 -76 100l-59 54l-12 10l-1 -51v-52h-9h-8v375zM16 -230c-7 7 -13 14 -14 16 c-2 1 -2 1 -2 -12c2 -44 17 -87 47 -137c10 -18 26 -40 56 -82l35 -49c4 -7 8 -13 9 -13c1 1 3 17 4 27c1 34 -11 76 -34 118c-21 38 -53 79 -101 132zM20 -448c-8 8 -17 15 -18 16l-2 2v-8c0 -30 10 -68 27 -103c16 -35 32 -58 80 -123c20 -26 34 -45 41 -55 c4 -7 4 -8 8 10c8 31 6 60 -4 90c-7 23 -27 58 -47 83c-20 26 -53 59 -85 88z"
         id="glyph285" />
      <glyph
         glyph-name="flags.u6"
         unicode=""
         horiz-adv-x="209"
         d="M-17 -500v500h8h9v-12c3 -56 23 -109 67 -181c4 -8 17 -28 28 -45c25 -40 34 -55 44 -73c29 -51 45 -92 52 -136c2 -18 2 -52 -1 -68c-2 -15 -7 -33 -12 -45l-4 -9l4 -9c7 -13 14 -33 18 -48c13 -53 8 -102 -15 -154l-6 -15l5 -11c10 -22 17 -47 21 -70 c2 -14 2 -37 1 -47c-3 -25 -13 -48 -28 -68l-5 -7l7 -15c29 -56 38 -102 30 -164c-4 -41 -17 -86 -35 -125c-6 -14 -8 -16 -14 -20c-7 -3 -11 -3 -18 0c-7 2 -10 6 -13 12c-3 7 -3 11 2 21c12 22 24 55 29 78c10 39 12 80 7 106c-8 40 -32 82 -72 129c-15 16 -49 51 -72 71 l-19 17l-1 -56v-56h-9h-8v500zM28 -244c-8 9 -18 20 -21 24l-7 8v-12c0 -40 10 -78 31 -120c15 -30 32 -57 74 -115c11 -17 25 -37 31 -45c5 -8 10 -14 10 -13c2 1 4 18 5 30c1 32 -9 71 -29 111c-20 39 -50 81 -94 132zM30 -466c-12 11 -23 22 -26 24l-4 4v-11 c0 -57 20 -111 67 -181l31 -45c12 -16 28 -39 36 -51l14 -22c1 0 2 4 4 10c7 23 10 49 8 70c-7 60 -47 122 -130 202zM41 -701c-15 14 -30 28 -34 32l-7 6v-11c0 -47 15 -94 46 -145c14 -24 25 -40 60 -87c10 -14 23 -31 28 -40c6 -8 11 -15 12 -15s10 22 12 29 c9 35 -3 82 -32 128c-21 34 -43 60 -85 103z"
         id="glyph287" />
      <glyph
         glyph-name="flags.d3"
         unicode=""
         horiz-adv-x="269"
         d="M188 722c2 1 6 2 9 2c5 0 13 -4 16 -8c4 -5 19 -37 26 -54c19 -47 28 -91 30 -138c1 -45 -8 -83 -30 -126c-19 -38 -43 -70 -101 -137c-43 -50 -58 -68 -76 -93c-25 -34 -43 -71 -53 -103c-5 -18 -9 -45 -9 -60v-5h-8h-9v125v125h9h8l15 9c142 89 208 167 212 249 c2 56 -17 125 -50 182c-5 9 -5 13 -2 21c3 6 6 9 13 11z"
         id="glyph289" />
      <glyph
         glyph-name="flags.ugrace"
         unicode=""
         horiz-adv-x="209"
         d="M200 -227c4 2 6 2 11 2c17 -2 28 -20 20 -35c-2 -5 -12 -13 -186 -154c-126 -102 -185 -148 -188 -150c-8 -3 -21 1 -27 9c-6 7 -7 17 -2 25c2 5 12 13 185 153c100 81 184 148 187 150z"
         id="glyph291" />
      <glyph
         glyph-name="flags.dgrace"
         unicode=""
         horiz-adv-x="269"
         d="M-202 537c5 1 11 1 15 0c5 -2 468 -268 472 -271c5 -4 9 -12 9 -18c0 -13 -10 -24 -23 -25c-4 0 -7 0 -9 1c-5 2 -468 268 -472 271c-2 1 -5 5 -6 8c-3 5 -3 6 -3 12c1 10 7 18 17 22z"
         id="glyph293" />
      <glyph
         glyph-name="flags.d4"
         unicode=""
         horiz-adv-x="269"
         d="M228 750c6 2 11 2 17 0c8 -4 10 -7 15 -24c5 -16 8 -37 9 -54c1 -40 -9 -77 -32 -113c-3 -6 -6 -11 -6 -11s2 -7 5 -14c13 -31 18 -57 20 -88c1 -34 -6 -65 -22 -96c-18 -36 -39 -63 -90 -114c-63 -64 -74 -77 -92 -100c-25 -33 -40 -64 -47 -95c-3 -12 -5 -27 -5 -36v-5 h-8h-9v250v250h9h8v-38v-37l9 5c74 39 120 71 156 107c58 58 75 118 51 180c-4 11 -4 15 -1 22c3 6 6 9 13 11zM206 489c-1 6 -4 13 -5 16l-1 4l-13 -14c-8 -7 -31 -30 -53 -51c-41 -39 -60 -58 -75 -76c-35 -42 -53 -81 -58 -123c-1 -6 -1 -18 -1 -27v-18l12 7 c58 34 103 67 136 99c35 36 55 69 63 105c2 9 2 13 2 29c0 20 -1 30 -7 49z"
         id="glyph295" />
      <glyph
         glyph-name="flags.d5"
         unicode=""
         horiz-adv-x="269"
         d="M228 972c6 3 11 2 18 0c8 -4 11 -9 16 -31c5 -21 6 -32 6 -55c0 -17 0 -23 -2 -32c-4 -24 -15 -51 -29 -74l-6 -9l2 -4c8 -14 18 -41 23 -60c12 -53 3 -102 -26 -150l-6 -10l4 -9c32 -62 25 -134 -18 -203c-18 -28 -36 -51 -81 -100l-54 -62c-49 -60 -71 -109 -75 -162 v-11h-9h-8v375v375h8h9v-45l1 -45l21 10c100 50 163 101 190 155c18 36 20 75 4 114c-4 11 -4 15 -1 22c3 6 6 9 13 11zM208 718c-2 5 -4 11 -5 13l-2 3l-14 -15c-7 -8 -31 -31 -52 -51c-39 -36 -55 -52 -69 -68c-28 -32 -46 -62 -56 -92c-7 -19 -9 -33 -10 -55v-18l16 8 c63 33 110 66 144 98c21 22 35 40 44 61c10 19 14 34 15 53c1 20 -3 42 -11 63zM198 500c-1 5 -3 8 -3 8s-4 -3 -7 -7l-59 -59c-28 -29 -57 -58 -63 -65c-36 -43 -54 -77 -63 -117c-2 -10 -2 -17 -3 -31v-19l18 12c108 72 167 137 183 201c7 27 6 51 -3 77z"
         id="glyph297" />
      <glyph
         glyph-name="flags.d6"
         unicode=""
         horiz-adv-x="269"
         d="M236 1097c6 3 11 2 18 0c7 -4 10 -7 11 -17c4 -29 5 -65 2 -80c-3 -13 -7 -26 -13 -36l-5 -10l3 -9c1 -4 3 -15 4 -23c9 -49 6 -85 -10 -120l-4 -11l3 -17c8 -45 10 -91 6 -118c-4 -20 -10 -41 -19 -60l-5 -9l1 -16c1 -9 1 -35 1 -59c0 -43 0 -45 -2 -57 c-8 -46 -24 -83 -57 -132c-14 -21 -28 -40 -62 -84c-34 -45 -52 -70 -67 -97c-26 -44 -39 -86 -41 -128v-14h-9h-8v500v500h9h8v-63v-62l4 1c73 12 136 35 174 64c24 18 40 40 46 63c3 11 3 38 0 56s-4 20 -1 26s6 10 13 12zM218 889c-1 7 -2 15 -2 18l-1 5l-9 -8 c-13 -12 -30 -24 -55 -42c-66 -46 -75 -53 -95 -72c-25 -23 -41 -48 -49 -73c-5 -15 -6 -21 -7 -45v-22l16 8c64 32 112 64 146 98c21 20 34 38 43 58c12 24 16 47 13 75zM209 725c-1 6 -2 11 -2 12s-3 -2 -7 -7c-13 -14 -32 -33 -70 -70c-49 -46 -64 -61 -82 -83 c-22 -29 -36 -58 -43 -86c-3 -14 -5 -29 -5 -48v-18l11 8c20 13 37 26 54 38c91 71 138 136 145 201c1 12 1 36 -1 53zM187 469c0 7 1 19 1 33c0 12 0 22 -1 22c0 1 -2 -1 -5 -4c-8 -11 -26 -31 -54 -62c-35 -39 -43 -48 -58 -66c-39 -48 -59 -89 -67 -133 c-2 -8 -2 -18 -3 -33v-21l3 2c9 8 48 45 63 61c75 77 112 140 121 201z"
         id="glyph299" />
      <glyph
         glyph-name="clefs.C"
         unicode=""
         horiz-adv-x="680"
         d="M3 497l3 3h64h64l2 -3l3 -2v-495v-494l-3 -3l-3 -3h-64l-64 1l-2 2l-2 2l-1 495v494zM186 497l3 3h16c16 0 17 -1 19 -3l3 -2v-238l1 -237l6 7c47 50 72 111 76 181c0 14 1 16 3 19c4 6 12 8 19 4c6 -3 7 -5 8 -20c3 -41 14 -74 35 -101c14 -18 33 -31 55 -37 c7 -2 11 -2 26 -2c16 0 19 0 27 2c23 6 37 16 49 34c18 29 25 74 24 158c-2 72 -8 113 -25 146c-13 26 -33 43 -59 52c-18 6 -48 9 -62 6c-20 -5 -32 -16 -34 -32c-1 -14 4 -24 19 -37c22 -18 27 -25 28 -39c1 -13 -3 -28 -11 -42c-4 -7 -19 -22 -26 -26 c-25 -15 -54 -15 -79 0c-7 4 -22 19 -26 26c-10 18 -13 35 -9 59c6 44 35 83 79 105c30 15 57 19 101 16c122 -8 194 -63 219 -165c7 -31 11 -76 8 -104c-6 -61 -40 -115 -93 -151c-33 -21 -70 -34 -110 -38c-30 -3 -38 -1 -65 15c-28 16 -39 19 -54 14 c-12 -4 -20 -12 -25 -25c-5 -12 -5 -19 -5 -45s0 -33 5 -45c5 -13 13 -21 25 -25c15 -5 26 -2 54 14c27 16 35 18 65 15c91 -8 167 -66 194 -147c9 -27 12 -54 9 -91c-4 -61 -20 -106 -49 -142c-38 -47 -97 -73 -178 -78c-44 -3 -71 1 -101 16c-44 22 -73 61 -79 105 c-4 24 -1 41 9 59c4 7 19 22 26 26c25 15 54 15 79 0c7 -4 22 -19 26 -26c8 -14 12 -29 11 -42c-1 -14 -6 -21 -28 -39c-15 -13 -20 -23 -19 -37c2 -16 14 -27 34 -32c14 -3 44 0 62 6c15 5 32 15 41 25c23 26 35 62 41 121c3 37 2 110 -2 142c-7 61 -27 91 -69 102 c-8 2 -11 2 -27 2c-15 0 -19 0 -26 -2c-40 -11 -70 -46 -83 -96c-4 -15 -6 -25 -7 -44c0 -10 -1 -13 -3 -15c-6 -8 -18 -8 -24 0c-2 3 -3 5 -3 19c-4 70 -30 133 -76 181l-7 8v-237v-237l-3 -3l-3 -3h-16c-16 0 -17 1 -19 3l-2 2l-1 495v494z"
         id="glyph301" />
      <glyph
         glyph-name="clefs.C_change"
         unicode=""
         horiz-adv-x="549"
         d="M3 397l3 3h51h51l2 -3l3 -2v-395v-394l-3 -3l-3 -3h-51l-51 1l-2 2l-2 2l-1 395v394zM155 397l3 3h14c13 0 14 -1 16 -3l3 -2v-189l1 -189l8 9c16 17 26 32 37 54c12 26 20 59 20 85c0 8 2 13 7 15c7 4 16 1 18 -5c1 -2 2 -8 2 -14c4 -56 32 -97 72 -105 c6 -1 11 -1 20 -1c48 3 69 29 76 94c2 17 2 88 0 105c-4 40 -11 64 -23 83c-15 23 -37 34 -71 36c-7 0 -13 0 -17 -1c-9 -2 -18 -6 -21 -12c-3 -4 -3 -5 -3 -12c0 -11 2 -14 16 -29c8 -9 13 -15 14 -18c3 -6 4 -16 2 -25c-6 -28 -31 -48 -59 -48c-29 0 -54 20 -60 48 c-2 9 -1 25 2 37c11 44 51 78 100 86c14 2 40 1 60 -1c65 -9 110 -38 135 -87c10 -21 16 -42 20 -70c2 -18 2 -56 0 -69c-4 -21 -11 -40 -21 -56c-28 -49 -79 -81 -138 -87c-23 -2 -31 -1 -51 13c-7 4 -16 9 -19 11c-7 3 -9 3 -15 3c-7 0 -9 0 -14 -2c-8 -5 -13 -11 -16 -24 c-2 -10 -2 -50 0 -60c3 -13 8 -19 16 -24c5 -2 7 -2 14 -2c6 0 8 0 15 3c3 2 12 7 19 11c20 14 28 15 51 13s43 -8 64 -18c44 -22 77 -60 90 -105c5 -19 7 -27 6 -53c0 -25 -1 -40 -6 -60c-17 -77 -67 -122 -150 -133c-20 -2 -46 -3 -60 -1c-49 8 -89 42 -100 87 c-3 11 -4 27 -2 36c7 33 40 53 72 47c28 -6 50 -34 48 -61c-1 -10 -3 -14 -17 -28c-14 -16 -16 -19 -16 -30c0 -7 0 -8 3 -12c3 -6 12 -10 21 -12c4 -1 10 -1 17 -1c34 2 56 13 71 36c12 19 19 43 23 83c2 17 2 88 0 105c-7 65 -28 91 -76 94c-9 0 -14 0 -20 -1 c-40 -8 -68 -49 -72 -104c0 -7 -1 -13 -2 -15c-2 -6 -11 -9 -18 -5c-5 2 -7 7 -7 15c0 3 0 10 -1 16c-5 47 -25 90 -56 124l-9 9v-189v-189l-3 -3l-3 -3h-14c-13 0 -14 1 -16 3l-2 2l-1 395v394z"
         id="glyph303" />
      <glyph
         glyph-name="clefs.F"
         unicode=""
         horiz-adv-x="671"
         d="M209 262c22 2 57 1 87 -4c145 -20 229 -110 229 -246c0 -77 -24 -152 -70 -218c-77 -109 -212 -202 -427 -295c-10 -4 -20 -9 -22 -10s-5 -2 -6 -2c-7 0 -13 6 -13 12s2 8 23 21c112 66 191 124 252 184c46 47 76 87 100 136c12 23 18 40 25 62c32 110 7 235 -58 297 c-37 34 -85 47 -133 35c-50 -13 -93 -57 -116 -117l-2 -6l8 3c43 15 95 -8 116 -52c8 -16 12 -38 9 -56c-7 -51 -45 -90 -93 -93c-50 -3 -99 30 -113 77c-4 12 -5 22 -5 39c2 36 10 69 26 102c36 73 106 123 183 131zM596 174c28 7 56 -10 62 -37c9 -38 -24 -71 -62 -62 c-27 6 -44 34 -37 62c4 18 19 33 37 37zM596 -75c28 7 56 -10 62 -37c9 -38 -24 -71 -62 -62c-27 6 -44 34 -37 62c4 18 19 33 37 37z"
         id="glyph305" />
      <glyph
         glyph-name="clefs.F_change"
         unicode=""
         horiz-adv-x="537"
         d="M163 212c8 1 48 0 61 -1c64 -8 116 -31 149 -68c36 -39 51 -92 46 -155c-9 -110 -74 -202 -200 -286c-50 -34 -115 -69 -192 -103c-10 -4 -19 -9 -21 -10s-5 -2 -6 -2c-7 0 -13 6 -13 12s2 8 24 23c78 53 124 89 167 131c20 21 35 38 49 57c52 69 74 140 68 218 c-3 37 -11 67 -23 94c-14 28 -31 46 -52 56c-15 8 -23 9 -41 9c-14 0 -16 0 -24 -2c-19 -6 -34 -15 -46 -29c-12 -13 -25 -34 -31 -52l-3 -7l3 1c7 1 25 0 33 -2c28 -8 48 -28 56 -56c3 -11 3 -32 0 -43c-7 -26 -25 -47 -48 -57c-33 -14 -78 -1 -101 29 c-14 17 -19 35 -18 59c5 92 65 167 148 182c6 1 12 2 15 2zM477 140c2 0 7 1 12 1c23 -1 40 -21 39 -45c-1 -15 -11 -28 -25 -34c-6 -3 -7 -3 -16 -3c-10 0 -11 0 -17 3c-10 4 -16 11 -21 20c-3 7 -3 8 -3 17c0 10 0 11 3 17c5 12 16 21 28 24zM477 -59c2 0 7 1 12 1 c23 -1 40 -21 39 -45c-1 -15 -11 -28 -25 -34c-6 -3 -7 -3 -16 -3c-10 0 -11 0 -17 3c-10 4 -16 11 -21 20c-3 7 -3 8 -3 17c0 10 0 11 3 17c5 12 16 21 28 24z"
         id="glyph307" />
      <glyph
         glyph-name="clefs.G"
         unicode=""
         horiz-adv-x="641"
         d="M316 1247c8 5 14 2 26 -11c68 -73 129 -208 143 -317c8 -60 0 -126 -23 -189c-25 -67 -64 -134 -135 -225l-17 -23l5 -14c23 -71 46 -145 58 -188l4 -17l17 -1c37 -2 68 -10 100 -26c67 -33 117 -97 136 -172c21 -81 4 -164 -47 -227c-30 -37 -65 -63 -106 -79l-10 -4 v-57c-1 -56 -1 -73 -5 -112c-4 -59 -20 -107 -48 -149c-42 -62 -100 -93 -166 -91c-37 2 -74 13 -105 32c-48 28 -82 74 -93 126c-9 39 -5 69 11 94c21 33 61 52 100 51c41 -2 74 -30 86 -72c10 -33 5 -64 -14 -89c-23 -31 -67 -46 -101 -34l-4 2l5 -6c6 -9 21 -24 30 -30 c28 -21 59 -31 94 -31c31 0 56 8 81 27c22 16 40 39 55 70c24 49 31 96 31 208v49c0 1 -7 0 -15 -1c-99 -14 -191 9 -267 66c-93 69 -145 179 -142 296c2 64 17 122 48 186s67 117 161 236l29 37l-5 18c-41 129 -57 205 -61 306c-1 27 -1 68 1 85c11 100 55 190 127 261 c7 7 14 14 16 15zM378 1102c-1 0 -2 1 -2 1c-1 0 -22 -15 -32 -23c-13 -10 -37 -34 -47 -47c-41 -51 -64 -106 -73 -172c-2 -20 -2 -58 1 -78c6 -41 24 -112 42 -168l3 -11l5 6c3 4 10 14 17 24c76 106 111 188 122 282c2 17 2 73 0 90c-3 16 -8 36 -13 50 c-5 11 -21 43 -23 46zM289 409l-11 32c-2 0 -61 -77 -82 -107c-75 -104 -111 -187 -122 -276c-2 -19 -3 -49 -1 -62c5 -47 26 -89 63 -127c23 -22 47 -40 77 -55c53 -27 106 -37 168 -33c19 1 39 4 40 5c2 2 -3 61 -9 105c-8 70 -21 143 -40 221c-6 28 -10 42 -10 42 c-1 1 -20 -1 -30 -4c-51 -11 -88 -43 -100 -86c-17 -58 13 -116 75 -151c13 -8 16 -11 17 -20c0 -7 -4 -15 -10 -19c-4 -3 -5 -3 -11 -3s-8 0 -20 6c-25 12 -43 25 -61 43c-23 23 -40 50 -49 80c-23 71 -4 150 48 203c17 17 34 28 56 39c12 6 34 13 47 16c4 0 9 2 9 2 c1 1 -21 78 -44 149zM424 149c-7 2 -13 3 -15 3l-3 1l2 -5c9 -35 26 -120 34 -170c9 -53 18 -128 21 -167c0 -6 1 -12 1 -13c1 -1 22 9 33 17c30 20 56 55 68 90c2 4 4 14 6 22c2 11 2 15 2 33c0 15 0 23 -1 30c-14 80 -71 142 -148 159z"
         id="glyph309" />
      <glyph
         glyph-name="clefs.G_change"
         unicode=""
         horiz-adv-x="513"
         d="M241 996c8 4 14 2 26 -10c27 -28 49 -61 72 -107c26 -54 43 -106 47 -153c5 -40 -1 -87 -15 -130c-18 -57 -50 -114 -106 -190l-13 -17l8 -22c11 -30 34 -100 43 -129l7 -25s5 0 12 -1c74 -7 136 -50 169 -117c27 -54 30 -118 10 -171c-21 -53 -65 -99 -113 -118l-10 -3 v-44c-1 -44 -2 -63 -5 -94c-8 -100 -65 -176 -142 -190c-12 -3 -32 -3 -45 -2c-78 8 -137 60 -152 131c-2 8 -2 14 -2 27c0 14 0 16 2 23c10 32 37 55 72 62c26 4 48 -3 67 -21c12 -13 19 -28 22 -46c6 -31 -5 -59 -30 -77c-13 -9 -31 -15 -46 -14l-7 1l4 -5 c13 -16 36 -30 57 -35c32 -9 63 -4 89 13c34 23 59 67 67 118c4 22 7 77 7 117v24h-5c-18 -3 -26 -3 -49 -3c-27 0 -35 0 -56 5c-42 8 -84 28 -119 56c-12 9 -33 31 -43 43c-33 42 -53 87 -61 142c-3 18 -3 60 -1 79c7 47 19 85 43 133c23 45 50 86 111 166 c15 19 27 35 27 36c0 0 -3 9 -8 20c-34 85 -48 137 -54 200c-4 33 -5 80 -3 104c6 64 29 123 70 174c14 18 45 47 53 50zM302 862c-3 5 -7 10 -8 11l-1 2l-6 -4c-42 -25 -75 -61 -97 -105c-16 -33 -24 -65 -26 -101c-1 -29 4 -49 27 -113c7 -22 22 -61 23 -62 c0 -1 6 6 23 31c64 95 91 174 89 257c-1 37 -7 55 -24 84zM229 331l-7 18c-1 0 -41 -54 -56 -74c-66 -93 -98 -167 -104 -245c-3 -36 1 -60 15 -87c8 -16 17 -28 31 -42c19 -19 37 -32 64 -45c24 -12 48 -20 75 -24c19 -3 70 -2 85 2h2v13c-4 60 -14 136 -28 209 c-5 25 -14 64 -14 65c-1 0 -20 -2 -29 -5c-41 -10 -68 -37 -75 -74c-8 -42 15 -84 61 -109c10 -5 13 -9 14 -18c0 -7 -4 -15 -10 -19c-4 -3 -5 -3 -11 -3s-8 0 -18 5c-37 18 -64 45 -80 78c-20 40 -22 85 -7 129c19 53 66 93 122 104c4 1 9 2 9 2c1 0 -26 83 -39 120z M352 112c-12 4 -16 6 -16 4l4 -21c17 -73 29 -151 33 -216c3 -27 3 -32 4 -32c0 0 4 2 8 5c34 19 59 53 67 93c2 13 2 40 -1 54c-11 54 -48 96 -99 113z"
         id="glyph311" />
      <glyph
         glyph-name="clefs.percussion"
         unicode=""
         horiz-adv-x="500"
         d="M170 247l3 3h50h51l2 -3l3 -2v-245v-244l-3 -3l-3 -3h-50l-51 1l-2 2l-2 2l-1 245v244zM391 247l3 3h50h51l2 -3l3 -2v-245v-244l-3 -3l-3 -3h-50l-51 1l-2 2l-2 2l-1 245v244z"
         id="glyph313" />
      <glyph
         glyph-name="clefs.percussion_change"
         unicode=""
         horiz-adv-x="400"
         d="M137 197l3 3h39h40l2 -3l3 -2v-195v-194l-3 -3l-3 -3h-39l-40 1l-2 2l-2 2l-1 195v194zM313 197l3 3h39h40l2 -3l3 -2v-195v-194l-3 -3l-3 -3h-39l-40 1l-2 2l-2 2l-1 195v194z"
         id="glyph315" />
      <glyph
         glyph-name="clefs.tab"
         unicode=""
         horiz-adv-x="700"
         d="M672 722c8 3 22 -3 26 -12c3 -7 3 -8 -6 -18c-26 -27 -62 -48 -98 -57c-29 -8 -57 -8 -85 -1l-2 1l-6 -33c-11 -66 -25 -142 -32 -168c-14 -55 -42 -106 -76 -138c-19 -19 -39 -30 -62 -36c-6 -2 -11 -2 -22 -2c-18 0 -26 1 -41 9c-13 6 -22 13 -46 33 c-10 8 -22 17 -25 19c-7 5 -9 8 -8 15c2 9 12 20 20 22c6 1 11 -2 30 -19c16 -14 24 -19 31 -23c22 -11 46 -7 65 12c21 20 35 54 41 100c1 6 3 22 3 37c3 52 11 127 19 183c2 11 3 21 3 21c-1 1 -27 4 -34 4c-19 0 -44 -4 -60 -11c-29 -10 -45 -26 -50 -47 c-6 -21 3 -42 22 -55c4 -2 5 -4 6 -8c3 -9 2 -19 -3 -25c-1 -2 -4 -3 -9 -5c-24 -7 -48 -5 -70 6c-18 9 -32 22 -40 38c-13 25 -11 58 5 84c9 14 28 31 47 41c39 19 96 30 160 30c23 0 26 0 36 -2c15 -3 37 -10 69 -20c49 -16 61 -19 85 -18c34 2 68 15 98 37c4 3 8 6 9 6z M476 287c7 1 27 0 36 -2c16 -4 30 -14 33 -23c1 -3 1 -5 0 -9c0 -3 -1 -19 -2 -36c-3 -73 -8 -192 -13 -276c-2 -51 -2 -59 1 -67c3 -6 5 -8 10 -10c8 -4 18 -2 41 9c19 9 22 10 25 8s6 -10 6 -15c0 -11 -5 -17 -15 -21c-4 -1 -13 -5 -20 -9c-39 -20 -46 -23 -60 -24 c-15 -1 -26 3 -36 13c-13 14 -22 40 -34 104c-8 41 -12 69 -18 125v6l-12 -15c-20 -25 -44 -53 -65 -75c-5 -6 -9 -10 -9 -11c0 0 2 -3 5 -6c8 -11 20 -19 35 -23c6 -2 10 -2 23 -2l16 -1l2 -4c5 -9 1 -24 -7 -30c-6 -4 -31 -9 -47 -9c-28 0 -53 10 -66 28l-4 5l-15 -14 c-33 -29 -51 -44 -72 -58c-26 -17 -50 -28 -70 -31c-23 -4 -40 -1 -65 14c-7 4 -17 9 -22 12c-8 4 -10 6 -11 8c-4 9 5 26 15 31c8 4 11 3 30 -6c20 -10 28 -13 40 -12c29 3 59 23 108 77c89 95 153 198 190 305c5 15 8 21 14 27c7 8 20 15 33 17zM343 -248c6 0 23 1 39 0 c109 -1 179 -25 200 -69c15 -33 4 -80 -27 -114c-8 -9 -19 -19 -28 -25c-3 -2 -6 -3 -6 -4c0 0 6 -1 14 -3c41 -10 67 -27 79 -53c9 -18 10 -44 3 -70c-4 -12 -15 -35 -23 -45c-29 -39 -70 -64 -118 -75c-12 -2 -16 -2 -33 -2s-21 0 -30 2c-28 6 -51 18 -68 37 c-13 14 -15 19 -11 28c6 11 23 20 31 16c1 -1 5 -4 9 -8c13 -14 33 -19 54 -15c35 7 66 34 77 67c16 51 -16 85 -86 89c-7 0 -12 1 -14 2c-5 3 -7 17 -2 26c4 9 8 11 20 12c19 2 37 14 50 33c16 24 18 53 6 77c-4 7 -15 18 -23 23c-11 7 -31 15 -45 17l-4 1l-2 -16 c-18 -102 -38 -208 -43 -225c-11 -45 -31 -87 -55 -120c-10 -12 -27 -30 -38 -38c-10 -8 -28 -16 -38 -19c-11 -3 -32 -3 -42 -1c-15 4 -29 13 -51 32c-8 5 -17 13 -21 16c-10 7 -11 11 -7 21c4 6 9 12 14 15c9 4 12 3 29 -11c26 -20 36 -25 55 -24c15 1 27 7 39 18 c29 30 46 95 46 179c0 20 1 37 4 68c2 23 8 67 11 86c2 8 2 14 2 14s-4 -1 -7 -3c-48 -19 -72 -55 -58 -85c3 -5 6 -8 9 -11c8 -7 10 -9 11 -13c2 -8 0 -21 -5 -26c-3 -4 -18 -7 -32 -8c-34 -1 -67 16 -81 44c-7 15 -9 30 -5 48c2 9 7 22 13 31c29 43 100 74 188 81z"
         id="glyph317" />
      <glyph
         glyph-name="clefs.tab_change"
         unicode=""
         horiz-adv-x="560"
         d="M534 575c4 3 5 3 9 3c7 -1 17 -10 17 -15c0 -2 -4 -6 -10 -12c-37 -36 -85 -53 -128 -47c-5 1 -11 2 -13 3s-3 1 -4 1c0 0 -2 -14 -5 -31c-11 -67 -22 -123 -28 -142c-14 -47 -41 -89 -72 -111c-9 -6 -25 -14 -33 -16c-10 -3 -24 -3 -34 -2c-15 3 -28 11 -51 30 c-7 6 -17 13 -21 16c-9 7 -10 8 -10 12s3 12 6 15s9 6 12 6c4 0 10 -4 22 -15c19 -17 29 -23 41 -24c31 -2 56 26 66 79c3 13 5 25 6 51c2 33 8 93 14 135c1 10 2 19 2 20c0 2 -1 3 -5 4c-30 6 -71 -2 -92 -19c-12 -10 -17 -20 -17 -34c0 -15 5 -25 16 -33c2 -2 5 -6 6 -8 c4 -8 1 -21 -5 -23c-8 -4 -20 -5 -30 -5c-12 1 -19 3 -29 8c-26 12 -41 37 -40 64c4 51 58 83 154 90c40 3 49 1 111 -19c30 -10 38 -12 52 -13c15 0 31 2 46 7c17 6 27 11 47 25zM378 229c13 2 28 0 40 -5c8 -4 12 -7 15 -12l3 -3l-2 -47c-3 -73 -6 -132 -9 -183 c-1 -26 -2 -53 -2 -62c0 -14 0 -16 2 -19c2 -6 6 -8 12 -9c6 0 13 2 28 9s18 8 21 6c4 -4 5 -18 1 -23c-1 -1 -5 -4 -9 -6c-5 -1 -10 -4 -12 -5c-29 -15 -34 -17 -42 -19c-11 -3 -20 -2 -28 2c-14 6 -21 20 -29 48c-10 41 -19 99 -22 136c0 6 -1 10 -1 11l-2 -2 c-6 -9 -37 -46 -56 -67l-11 -11l2 -3c2 -5 9 -11 16 -14c9 -6 17 -8 32 -9h13l1 -4c4 -7 1 -19 -5 -23c-1 -1 -7 -3 -12 -5c-9 -2 -13 -2 -25 -2c-16 0 -25 1 -36 7c-7 4 -17 12 -19 16l-1 3l-13 -12c-49 -45 -83 -66 -114 -71c-18 -3 -32 1 -54 13c-7 5 -15 9 -18 10 c-6 3 -7 7 -4 15c2 9 11 16 18 16c1 0 9 -3 16 -7c16 -8 23 -9 33 -9c20 2 39 14 70 45c74 74 134 166 165 253c7 19 10 26 16 31c5 5 14 9 22 11zM276 -199c9 1 56 0 67 -1c64 -6 105 -23 121 -50c6 -11 8 -17 7 -31c0 -15 -2 -24 -8 -37c-8 -17 -23 -34 -39 -45 c-7 -5 -7 -5 -4 -6c24 -5 37 -10 50 -19c13 -8 21 -19 25 -32c3 -10 3 -32 0 -43c-5 -19 -13 -35 -26 -50c-22 -25 -54 -44 -87 -51c-9 -2 -14 -2 -28 -2c-16 0 -19 0 -27 2c-20 6 -35 14 -49 27c-12 13 -14 17 -10 25c4 7 13 13 20 13c3 0 5 -1 11 -6c4 -4 9 -8 12 -9 c32 -16 82 11 94 50c8 27 -1 48 -23 59c-13 7 -34 11 -51 11c-6 0 -7 0 -9 3s-2 10 -1 16c2 6 6 12 11 12c13 2 17 3 24 6c23 12 37 41 33 67c-3 17 -14 30 -31 39c-8 4 -20 9 -29 10c-3 1 -3 1 -4 -4c0 -3 -7 -37 -14 -75c-22 -125 -24 -133 -42 -169 c-30 -63 -75 -95 -116 -87c-13 3 -23 9 -46 28c-21 17 -21 16 -21 20c0 6 6 16 13 19c7 4 10 3 27 -11c5 -5 13 -10 18 -12c6 -4 9 -4 16 -5c33 -2 57 26 68 82c4 22 6 38 7 74c1 41 4 75 12 121c1 8 2 15 2 16c-2 1 -22 -9 -30 -14c-2 -2 -7 -6 -11 -10 c-19 -19 -20 -45 -2 -58c6 -4 8 -8 7 -17c-1 -10 -5 -14 -19 -16c-37 -8 -74 14 -81 46c-3 15 1 34 10 49c6 8 20 21 30 28c30 20 76 34 123 37z"
         id="glyph319" />
      <glyph
         glyph-name="timesig.C44"
         unicode=""
         horiz-adv-x="425"
         d="M222 262c14 1 36 1 47 0c74 -8 134 -61 153 -136c7 -27 5 -46 -7 -66c-4 -7 -17 -20 -24 -24c-19 -11 -42 -12 -64 -2c-20 10 -32 23 -39 44c-3 9 -3 10 -3 23c0 14 1 20 5 32c7 17 20 31 35 38c12 6 23 8 35 8c5 -1 9 0 9 0c0 1 -5 6 -12 13c-22 22 -47 36 -78 42 c-13 3 -34 4 -48 2c-54 -6 -80 -33 -89 -94c-4 -28 -4 -40 -4 -142s0 -114 4 -142c9 -60 35 -88 87 -94c48 -5 88 9 123 43c24 25 42 57 53 97c5 15 5 16 9 17c9 5 20 -2 19 -12c-1 -7 -7 -27 -12 -38c-27 -71 -79 -119 -141 -131c-34 -7 -91 -1 -132 14 c-84 31 -133 99 -146 202c-2 20 -2 68 0 88c14 111 70 182 167 209c14 3 38 8 53 9z"
         id="glyph321" />
      <glyph
         glyph-name="timesig.C22"
         unicode=""
         horiz-adv-x="425"
         d="M203 347l3 3h14c13 0 14 -1 16 -3l3 -2v-41v-41h10c83 0 152 -55 173 -137c7 -27 5 -46 -7 -66c-4 -7 -17 -20 -24 -24c-19 -11 -42 -12 -64 -2c-20 10 -32 23 -39 44c-3 9 -3 10 -3 23c0 14 1 20 5 32c7 17 20 31 35 38c12 6 23 8 35 8c5 -1 9 0 9 0c0 1 -5 6 -12 13 c-28 28 -62 43 -103 45h-15v-237v-237h10c39 0 73 15 103 44c24 25 42 57 53 97c5 15 5 16 9 17c9 5 20 -2 19 -12c-1 -3 -2 -10 -4 -16c-22 -73 -70 -129 -129 -148c-15 -5 -28 -7 -45 -8h-16v-41v-40l-3 -3l-3 -3h-14c-13 0 -14 1 -16 3l-2 2l-1 43v43l-9 1 c-22 4 -46 12 -64 21c-71 34 -113 99 -125 193c-2 20 -2 68 0 88c13 102 62 170 144 201c13 5 31 10 44 12l10 2v43v42zM200 0c0 183 0 229 -1 229s-5 -2 -9 -4c-32 -17 -46 -47 -51 -112c-2 -22 -2 -204 0 -226c5 -66 19 -96 53 -113c3 -2 6 -3 7 -3s1 73 1 229z"
         id="glyph323" />
      </font>
</defs>
</svg>
