<svg xmlns="http://www.w3.org/2000/svg">
<defs>
<font
       id="FontID1"
       font-variant="normal"
       font-weight="400"
       horiz-origin-x="0"
       horiz-origin-y="0"
       horiz-adv-x="90"
       vert-origin-x="45"
       vert-origin-y="90"
       vert-adv-y="90"><font-face
         font-family="FrutigerRoman"
         id="font-face2" /><missing-glyph
         id="missing-glyph6"><path
           d="M0 0z"
           id="path4" /></missing-glyph><glyph
         unicode="/"
         horiz-adv-x="277"
         id="glyph10"><path
           d="M302.993 709.989l-239.98 -721.98 -88.0152 0 240.008 721.98 87.9868 0z"
           id="path8" /></glyph><glyph
         unicode="."
         horiz-adv-x="277"
         id="glyph14"><path
           d="M194.994 0l-111.996 0 0 111.996 111.996 0 0 -111.996z"
           id="path12" /></glyph><glyph
         unicode="-"
         horiz-adv-x="333"
         id="glyph18"><path
           d="M295 230.994l-256.987 0 0 75.9964 256.987 0 0 -75.9964z"
           id="path16" /></glyph><glyph
         unicode=","
         horiz-adv-x="277"
         id="glyph22"><path
           d="M195.164 111.996l-85.0105 -244.997 -89.9994 0 63.0138 244.997 111.996 0z"
           id="path20" /></glyph><glyph
         unicode="+"
         horiz-adv-x="600"
         id="glyph26"><path
           d="M553.008 208.997l-208.997 0 0 -208.997 -88.0152 0 0 208.997 -208.997 0 0 88.0152 208.997 0 0 208.997 88.0152 0 0 -208.997 208.997 0 0 -88.0152z"
           id="path24" /></glyph><glyph
         unicode="*"
         horiz-adv-x="556"
         id="glyph30"><path
           d="M484.013 515.987l-157.01 -32.9951 107.007 -122.995 -75.0043 -50.0028 -81.0137 138.018 -82.0058 -138.018 -73.9838 50.0028 109.984 122.995 -159.986 32.9951 28.0061 85.0105 151.001 -61.9933 -16.0156 158.994 91.0199 0 -15.0235 -158.994 146.012 61.9933 27.014 -85.0105z"
           id="path28" /></glyph><glyph
         unicode=")"
         horiz-adv-x="333"
         id="glyph34"><path
           d="M268.156 308.011c0,-78.009 -15.9873,-156.67 -47.9902,-236.011 -23.329,-58.6768 -61.9933,-129.344 -115.993,-212.002l-89.9994 0c48.6706,86.6829 83.99,158.342 105.987,215.007 32.0029,82.6577 48.0186,160.327 48.0186,233.006 0,124.667 -51.3351,273.995 -154.005,447.985l89.9994 0c109.332,-163.331 163.983,-312.659 163.983,-447.985z"
           id="path32" /></glyph><glyph
         unicode="("
         horiz-adv-x="333"
         id="glyph38"><path
           d="M319.009 -140.002l-89.9994 0c-109.332,163.331 -164.012,312.659 -164.012,448.013 0,77.9806 16.0156,156.67 47.9902,235.983 23.3573,58.6768 62.0217,129.344 116.021,212.002l89.9994 0c-48.6706,-86.6546 -84.0184,-158.342 -106.015,-215.007 -32.0029,-82.6577 -47.9902,-160.327 -47.9902,-232.978 0,-124.667 51.3351,-274.023 154.005,-448.013z"
           id="path36" /></glyph><glyph
         unicode="'"
         horiz-adv-x="277"
         id="glyph42"><path
           d="M183.004 453.002l-88.0152 0 0 244.997 88.0152 0 0 -244.997z"
           id="path40" /></glyph><glyph
         unicode="&amp;"
         horiz-adv-x="722"
         id="glyph46"><path
           d="M690.005 0l-125.007 0 -57.0044 68.0027c-46.658,-53.3477 -113.328,-79.9932 -199.983,-79.9932 -64.6862,0 -117.354,15.9873 -158.002,47.9902 -44.6737,34.6675 -67.0106,83.6782 -67.0106,147.004 0,93.9963 52.0154,161.999 155.99,204.008 -47.9902,57.9965 -71.9995,110.976 -71.9995,158.994 0,53.3193 17.3479,94.3364 52.0154,122.995 32.6549,27.3258 75.9964,40.9887 129.996,40.9887 51.3351,0 92.3238,-13.3228 122.995,-39.9966 33.3352,-28.6581 50.0028,-68.0027 50.0028,-118.006 0,-75.9964 -50.995,-136.657 -153.155,-182.153l142.157 -161.829c24.0093,37.984 38.3242,94.3364 43.0013,169.001l93.9963 0c-7.34169,-88.4971 -33.6754,-168.008 -79.3412,-238.506l121.35 -138.5zm-262.005 547.99c0,57.3445 -27.666,86.0026 -82.9979,86.0026 -25.9935,0 -46.5162,-8.33381 -61.5114,-25.0014 -14.9952,-16.6676 -22.4786,-38.3242 -22.4786,-64.998 0,-33.3352 20.6644,-72.6515 61.9933,-118.006 69.987,33.3352 104.995,74.0121 104.995,122.002zm26.9857 -417.002l-167.98 197.007c-32.6833,-21.9967 -55.3319,-40.6486 -68.0027,-55.9839 -20.0125,-24.0093 -29.9904,-51.3351 -29.9904,-82.0058 0,-36.6801 13.4928,-66.8405 40.4785,-90.5097 27.014,-23.6691 59.187,-35.4895 96.5191,-35.4895 46.658,0 89.6593,22.3369 128.976,66.9823z"
           id="path44" /></glyph><glyph
         unicode="%"
         horiz-adv-x="999"
         id="glyph50"><path
           d="M889.988 187.993c0,-133.313 -49.9745,-199.983 -149.98,-199.983 -100.006,0 -150.009,66.6704 -150.009,199.983 0,133.341 50.0028,200.011 150.009,200.011 100.006,0 149.98,-66.6704 149.98,-200.011zm-137.99 532.003l-432.989 -741.992 -71.9995 0 432.989 741.992 71.9995 0zm-341.998 -209.989c0,-133.341 -50.0028,-200.011 -150.009,-200.011 -100.006,0 -149.98,66.6704 -149.98,200.011 0,133.341 49.9745,199.983 149.98,199.983 100.006,0 150.009,-66.6421 150.009,-199.983zm392.001 -305.998c0,75.9964 -20.6644,113.98 -61.9933,113.98 -41.3289,0 -62.0217,-43.3131 -62.0217,-129.996 0,-86.6546 20.6928,-129.996 62.0217,-129.996 28.0061,0 46.3178,18.6802 54.9918,56.0122 4.67714,19.3322 7.00153,49.3225 7.00153,89.9994zm-479.988 321.985c0,75.9964 -20.6928,114.009 -62.0217,114.009 -41.3289,0 -61.9933,-43.3415 -61.9933,-129.996 0,-86.6829 20.6644,-129.996 61.9933,-129.996 28.0061,0 46.3462,18.6519 55.0201,55.9839 4.64879,19.3322 7.00153,49.3509 7.00153,89.9994z"
           id="path48" /></glyph><glyph
         unicode="$"
         horiz-adv-x="556"
         id="glyph54"><path
           d="M481.008 194.994c0,-53.3193 -16.0156,-97.9931 -48.0186,-133.993 -32.0029,-35.9998 -74.6641,-58.3366 -127.983,-67.0106l0 -99.9773 -57.9965 0 0 93.9963c-62.6736,0 -117.354,9.66608 -164.012,28.9982l11.9905 95.9805c35.3478,-24.6613 86.0026,-36.9919 152.021,-36.9919l0 243.013c-58.6768,28.6581 -98.6734,53.3193 -120.018,73.9838 -34.6675,33.3352 -51.9871,75.6846 -51.9871,127.02 0,49.3225 16.6676,90.9916 50.0028,124.979 31.3226,32.6833 71.9995,53.0075 122.002,61.0012l0 100.006 57.9965 0 0 -96.0088c50.0028,-1.33228 97.6529,-9.66608 143.007,-25.0014l-14.0031 -91.9837c-32.6833,19.3322 -75.6846,28.9982 -129.004,28.9982l0 -216.991c66.6704,-36.6801 107.999,-62.6736 123.987,-78.009 34.6675,-32.6833 52.0154,-76.6767 52.0154,-132.009zm-233.999 240.008l0 179.007c-44.0218,-16.0156 -66.0185,-46.3462 -66.0185,-91.0199 0,-31.3226 21.9967,-60.661 66.0185,-87.9868zm127.983 -245.989c0,42.6611 -23.329,76.3082 -69.987,100.998l0 -203.016c20.6644,6.66138 37.5021,19.6723 50.4847,39.0045 13.0109,19.3322 19.5022,40.3368 19.5022,63.0138z"
           id="path52" /></glyph><glyph
         unicode="#"
         horiz-adv-x="556"
         id="glyph58"><path
           d="M528.006 413.997l-106.837 0 -16.3275 -129.996 94.1663 0 0 -75.9964 -105.845 0 -29.1683 -208.005 -75.9964 0 29.1683 208.005 -117.835 0 -29.3384 -208.005 -75.9964 0 29.1683 208.005 -95.1585 0 0 75.9964 106.837 0 16.3275 129.996 -95.1585 0 0 75.9964 106.809 0 29.1683 208.005 76.0247 0 -29.1683 -208.005 117.807 0 29.3384 208.005 75.9964 0 -29.1683 -208.005 95.1868 0 0 -75.9964zm-183.004 0l-117.835 0 -16.1574 -129.996 117.835 0 16.1574 129.996z"
           id="path56" /></glyph><glyph
         unicode="&quot;"
         horiz-adv-x="556"
         id="glyph62"><path
           d="M396.99 453.002l-87.9868 0 0 244.997 87.9868 0 0 -244.997zm-149.98 0l-88.0152 0 0 244.997 88.0152 0 0 -244.997z"
           id="path60" /></glyph><glyph
         unicode="!"
         horiz-adv-x="388"
         id="glyph66"><path
           d="M251.006 697.999l-13.0109 -502.013 -86.0026 0 -12.9826 502.013 111.996 0zm0 -697.999l-111.996 0 0 111.996 111.996 0 0 -111.996z"
           id="path64" /></glyph><glyph
         unicode=" "
         horiz-adv-x="277"
         id="glyph68" /><glyph
         unicode="?"
         horiz-adv-x="499"
         id="glyph72"><path
           d="M456.007 528.006c0,-43.9934 -16.3275,-87.3349 -49.0107,-129.996 -13.3228,-16.6676 -42.6611,-53.6879 -87.9868,-111.004 -14.0031,-21.9967 -21.0046,-52.3272 -21.0046,-91.0199l-93.9963 0 0 21.0046c0,44.8438 12.5007,84.1884 37.6722,118.346 15.9873,18.5101 39.4864,47.1682 70.3271,85.6625 25.3132,32.0029 37.984,65.3382 37.984,100.006 0,33.3352 -12.3306,58.9886 -36.9919,76.9885 -21.3447,16.0156 -49.3225,24.0093 -83.99,24.0093 -62.0217,0 -111.344,-13.3228 -147.996,-39.9966l-7.00153 94.9884c50.6548,21.9967 105.987,32.9951 165.996,32.9951 58.6484,0 108.339,-15.3353 148.988,-45.9777 44.6737,-33.3352 67.0106,-78.6893 67.0106,-136.005zm-149.016 -528.006l-111.996 0 0 111.996 111.996 0 0 -111.996z"
           id="path70" /></glyph><glyph
         unicode="&gt;"
         horiz-adv-x="600"
         id="glyph76"><path
           d="M554 215.007l-507.994 -223 0 88.1569 393.985 172.997 -393.985 172.997 0 87.8451 507.994 -223 0 -75.9964z"
           id="path74" /></glyph><glyph
         unicode="="
         horiz-adv-x="600"
         id="glyph80"><path
           d="M553.008 313.992l-506.009 0 0 88.0152 506.009 0 0 -88.0152zm0 -209.989l-506.009 0 0 87.9868 506.009 0 0 -87.9868z"
           id="path78" /></glyph><glyph
         unicode="&lt;"
         horiz-adv-x="600"
         id="glyph84"><path
           d="M554 -7.99365l-507.994 223 0 75.9964 507.994 223 0 -88.1569 -394.013 -172.856 394.013 -173.167 0 -87.8168z"
           id="path82" /></glyph><glyph
         unicode=";"
         horiz-adv-x="277"
         id="glyph88"><path
           d="M195.164 398.01l-111.996 0 0 111.996 111.996 0 0 -111.996zm0 -286.014l-85.0105 -244.997 -89.9994 0 63.0138 244.997 111.996 0z"
           id="path86" /></glyph><glyph
         unicode=":"
         horiz-adv-x="277"
         id="glyph92"><path
           d="M194.994 398.01l-111.996 0 0 111.996 111.996 0 0 -111.996zm0 -398.01l-111.996 0 0 111.996 111.996 0 0 -111.996z"
           id="path90" /></glyph><glyph
         unicode="9"
         horiz-adv-x="556"
         id="glyph96"><path
           d="M504.167 374.993c0,-109.332 -19.3322,-197.007 -57.9965,-262.997 -47.9902,-82.6577 -122.995,-123.987 -225.013,-123.987 -59.9807,0 -107.999,7.31334 -143.999,21.9967l14.0031 89.0073c36.6801,-19.3605 78.009,-29.0266 124.015,-29.0266 64.6579,0 114.321,27.3542 148.988,82.0058 29.9904,46.6863 45.3257,104.002 46.006,172.005l-2.01259 -0.99212c-48.6706,-42.6611 -99.6655,-64.0059 -152.985,-64.0059 -64.6862,0 -115.851,20.3243 -153.495,61.0012 -37.6722,40.6769 -56.5225,93.6561 -56.5225,158.994 0,68.0027 20.3526,123.505 61.0012,166.506 40.6769,43.0013 95.0167,64.4878 163.019,64.4878 156.67,0 234.991,-111.656 234.991,-334.996zm-105.987 106.015c0,38.6643 -10.6865,71.9995 -32.0029,100.006 -23.3573,31.3226 -53.6879,46.9981 -91.0199,46.9981 -39.3163,0 -70.3271,-15.0235 -93.0041,-45.0139 -20.6644,-27.3258 -30.9825,-61.3413 -30.9825,-101.99 0,-37.332 10.0062,-69.335 29.9904,-96.0088 21.9967,-29.3384 50.995,-43.9934 86.9947,-43.9934 40.0249,0 71.6877,13.1527 95.0167,39.4864 23.329,26.3337 35.0077,59.839 35.0077,100.516z"
           id="path94" /></glyph><glyph
         unicode="8"
         horiz-adv-x="556"
         id="glyph100"><path
           d="M518 187.993c0,-67.3224 -24.3211,-118.317 -72.9917,-152.985 -43.3415,-31.351 -99.6655,-46.9981 -169.001,-46.9981 -64.0059,0 -118.346,15.9873 -163.019,47.9902 -49.9745,36.6801 -74.9759,85.6625 -74.9759,147.004 0,43.9934 14.3149,82.6577 43.0013,115.993 25.9935,29.9904 60.9728,52.6674 104.995,68.0027l0 2.01259c-87.3349,30.6423 -131.016,88.6672 -131.016,173.989 0,54.6516 25.0014,97.3411 75.0043,128.012 42.6611,25.9935 93.0041,38.9761 151.001,38.9761 52.6674,0 100.006,-12.6424 142.015,-37.984 49.3225,-30.0187 73.9838,-69.6752 73.9838,-118.998 0,-43.3415 -11.3385,-79.6814 -33.9872,-109.02 -20.0125,-25.3132 -50.6831,-48.9824 -92.012,-70.9791 43.9934,-15.3353 79.0011,-38.3525 104.995,-68.9948 28.0061,-32.6833 42.0092,-71.3476 42.0092,-116.021zm-126.991 352.004c0,29.3384 -13.0109,52.0154 -39.0045,68.0027 -21.3447,13.3228 -47.6784,20.0125 -79.0011,20.0125 -29.9904,0 -56.6642,-9.01412 -79.9932,-27.014 -25.3416,-19.3322 -38.0124,-43.3415 -38.0124,-71.9995 0,-26.6738 18.34,-52.6674 54.9918,-78.009 16.6676,-11.9905 46.3462,-28.3179 89.0073,-48.9824 32.0029,23.981 53.6595,43.3131 64.998,57.9965 17.9999,23.329 27.014,50.0028 27.014,79.9932zm21.0046 -355.009c0,28.0061 -8.022,52.0154 -24.0093,71.9995 -13.3511,16.6676 -32.6833,30.6707 -57.9965,42.0092 -15.3353,6.66138 -38.6643,17.0078 -70.0153,31.0108 -26.6455,-17.9999 -52.9792,-36.3399 -79.0011,-55.0201 -24.6613,-21.9967 -36.9919,-50.6548 -36.9919,-85.9743 0,-36.6801 14.655,-66.0185 43.9934,-88.0152 26.6738,-20.6644 59.017,-31.0108 97.001,-31.0108 35.9998,0 66.1602,10.3464 90.5097,31.0108 24.3211,20.6644 36.51,48.6706 36.51,83.99z"
           id="path98" /></glyph><glyph
         unicode="7"
         horiz-adv-x="556"
         id="glyph104"><path
           d="M491.156 615.993l-257.979 -615.993 -109.502 0 265.661 615.993 -340.155 0 0 82.0058 441.975 0 0 -82.0058z"
           id="path102" /></glyph><glyph
         unicode="6"
         horiz-adv-x="556"
         id="glyph108"><path
           d="M510.998 219.003c0,-68.0027 -20.3243,-123.505 -61.0012,-166.506 -40.6769,-43.0013 -94.9884,-64.4878 -162.991,-64.4878 -156.67,0 -235.019,111.656 -235.019,334.996 0,109.332 19.3322,197.007 58.0248,262.997 47.9902,82.6577 122.995,123.987 224.984,123.987 60.0091,0 107.999,-7.31334 143.999,-21.9967l-14.0031 -88.979c-36.6517,19.3322 -77.9806,28.9982 -123.987,28.9982 -64.6862,0 -114.349,-27.3542 -149.016,-82.0058 -29.9904,-46.6863 -45.3257,-104.002 -45.9777,-172.005l1.98424 0.99212c48.6706,42.6611 99.6655,64.0059 153.013,64.0059 64.6579,0 116.333,-20.6644 154.997,-61.9933 36.6517,-39.9966 54.9918,-92.664 54.9918,-158.002zm-105.987 -2.01259c0,37.332 -10.0062,69.335 -30.0187,96.0088 -21.9967,29.3384 -50.995,43.9934 -86.9947,43.9934 -39.9966,0 -71.6594,-13.1527 -94.9884,-39.4864 -23.329,-26.3337 -35.0077,-59.839 -35.0077,-100.516 0,-38.6643 10.6582,-71.9995 32.0029,-99.9773 23.329,-31.351 53.6595,-47.0265 90.9916,-47.0265 39.3446,0 70.3271,15.0235 93.0041,45.0139 20.6644,27.3258 31.0108,61.3413 31.0108,101.99z"
           id="path106" /></glyph><glyph
         unicode="5"
         horiz-adv-x="556"
         id="glyph112"><path
           d="M497.987 223c0,-74.0121 -26.6455,-132.32 -79.9932,-175.01 -49.3225,-39.9966 -111.656,-59.9807 -187,-59.9807 -57.3162,0 -107.319,7.6535 -149.98,22.9888l2.97636 93.9963c41.3572,-23.329 89.6876,-35.0077 145.02,-35.0077 43.9934,0 81.3255,11.6787 111.996,35.0077 33.9872,25.9935 50.995,60.3492 50.995,103.01 0,47.9902 -16.6676,85.3223 -50.0028,111.996 -30.6707,24.6613 -70.3271,36.9919 -118.998,36.9919 -50.0028,0 -94.9884,-8.64561 -135.013,-25.9935l6.00941 366.999 384.007 0 0 -82.0058 -290.011 0 -5.98106 -187c25.3132,6.66138 55.3319,10.0062 89.9994,10.0062 61.9933,0 115.143,-20.4944 159.476,-61.5114 44.3336,-40.9887 66.5004,-92.4939 66.5004,-154.487z"
           id="path110" /></glyph><glyph
         unicode="4"
         horiz-adv-x="556"
         id="glyph116"><path
           d="M532.173 158.994l-88.0152 0 0 -158.994 -99.9773 0 0 158.994 -325.018 0 0 82.0058 282.017 456.999 142.979 0 0 -456.999 88.0152 0 0 -82.0058zm-187.993 82.0058l0 374.993 -1.19054 0.680311 -218.833 -375.673 220.024 0z"
           id="path114" /></glyph><glyph
         unicode="3"
         horiz-adv-x="556"
         id="glyph120"><path
           d="M486.167 186.008c0,-132.009 -91.6719,-197.999 -274.987,-197.999 -46.006,0 -99.3537,8.98577 -160.015,26.9857l6.00941 93.0041c50.6548,-25.3416 101.65,-38.0124 152.985,-38.0124 44.6737,0 82.3459,8.67396 113.017,26.0219 37.984,21.3164 57.0044,52.3272 57.0044,93.0041 0,59.9807 -26.6738,99.3254 -80.0215,117.977 -28.6581,10.0062 -80.3334,15.0235 -154.997,15.0235l0 81.9774c65.3382,0 113.669,4.67714 144.991,14.0031 56.0122,16.6676 84.0184,50.0028 84.0184,100.006 0,37.332 -14.0031,65.6783 -42.0092,85.0105 -23.981,16.6676 -55.6721,25.0014 -94.9884,25.0014 -52.6674,0 -104.343,-12.6708 -154.997,-38.0124l-6.00941 89.0073c56.0122,20.6644 114.321,30.9825 175.01,30.9825 65.9901,0 119.309,-14.9952 159.986,-44.9855 46.006,-33.3352 68.9948,-81.6656 68.9948,-144.991 0,-42.0092 -14.9952,-77.6688 -44.9855,-107.007 -26.6738,-26.6738 -61.6815,-43.9934 -104.995,-52.0154l0 -1.98424c104.002,-21.3447 155.99,-79.0011 155.99,-172.997z"
           id="path118" /></glyph><glyph
         unicode="2"
         horiz-adv-x="556"
         id="glyph124"><path
           d="M492.176 0l-442.004 0 0 106.837c111.316,99.3254 178.326,161.177 201.003,185.158 83.3097,88.6672 124.979,163.671 124.979,225.013 0,34.6675 -13.9747,62.3335 -41.9808,82.9979 -25.3416,18.6519 -56.0122,28.0061 -92.012,28.0061 -52.6674,0 -105.987,-15.0235 -159.986,-45.0139l-10.0062 86.0026c63.3256,27.3258 124.327,40.9887 183.004,40.9887 65.3382,0 118.658,-16.6676 159.986,-50.0028 44.6737,-35.3195 67.0106,-84.9821 67.0106,-148.988 0,-65.3382 -41.0171,-143.999 -122.995,-236.011 -29.3384,-32.6549 -96.6892,-97.001 -201.996,-192.981l334.996 0 0 -82.0058z"
           id="path122" /></glyph><glyph
         unicode="1"
         horiz-adv-x="556"
         id="glyph128"><path
           d="M369.154 0l-99.9773 0 0 582.346 -107.007 -91.3601 -53.0075 67.0106 171.013 140.002 88.979 0 0 -697.999z"
           id="path126" /></glyph><glyph
         unicode="0"
         horiz-adv-x="556"
         id="glyph132"><path
           d="M514.995 348.999c0,-96.6608 -15.3353,-176.002 -46.006,-237.995 -40.6486,-82.0058 -104.314,-122.995 -190.997,-122.995 -86.6546,0 -150.32,40.9887 -190.997,122.995 -30.6707,61.9933 -46.006,141.335 -46.006,237.995 0,96.6608 15.3353,176.002 46.006,237.995 40.6769,82.0058 104.343,122.995 190.997,122.995 86.6829,0 150.349,-40.9887 190.997,-122.995 30.6707,-61.9933 46.006,-141.335 46.006,-237.995zm-105.987 0c0,65.9901 -7.34169,122.995 -21.9967,171.013 -22.0251,71.9995 -58.3366,107.999 -109.02,107.999 -50.6548,0 -86.9947,-35.9998 -108.991,-107.999 -14.655,-48.0186 -21.9967,-105.023 -21.9967,-171.013 0,-186.008 43.6533,-279.012 130.988,-279.012 87.3349,0 131.016,93.0041 131.016,279.012z"
           id="path130" /></glyph><glyph
         unicode="•"
         horiz-adv-x="499"
         id="glyph136"><path
           d="M424.996 348.999c0,-48.6706 -17.0078,-89.9994 -50.995,-123.987 -33.9872,-34.0155 -75.3444,-51.0233 -123.987,-51.0233 -48.6706,0 -89.8577,16.8377 -123.505,50.5131 -33.6754,33.6754 -50.5131,75.1743 -50.5131,124.497 0,48.6706 16.8377,89.8294 50.5131,123.505 33.647,33.6754 74.8342,50.4847 123.505,50.4847 49.3225,0 90.8215,-16.8093 124.497,-50.4847 33.647,-33.6754 50.4847,-74.8342 50.4847,-123.505z"
           id="path134" /></glyph><glyph
         unicode="O"
         horiz-adv-x="777"
         id="glyph140"><path
           d="M725.013 348.999c0,-106.667 -29.0266,-192.67 -87.0231,-258.008 -60.661,-68.6547 -143.659,-102.982 -248.994,-102.982 -105.335,0 -188.333,34.3273 -248.994,102.982 -57.9965,65.3382 -86.9947,151.341 -86.9947,258.008 0,105.335 29.3384,190.997 87.9868,256.987 61.3413,69.335 143.999,104.002 248.002,104.002 104.002,0 186.66,-34.6675 248.002,-104.002 58.6768,-65.9901 88.0152,-151.653 88.0152,-256.987zm-106.015 0c0,75.9964 -18.992,139.01 -57.0044,189.013 -41.9808,55.9839 -99.6655,83.99 -172.997,83.99 -73.3318,0 -130.988,-28.0061 -172.997,-83.99 -38.0124,-50.0028 -57.0044,-113.017 -57.0044,-189.013 0,-77.3286 18.6802,-140.654 56.0122,-190.005 41.3289,-55.3319 99.3254,-82.9979 173.989,-82.9979 74.6641,0 132.661,27.666 174.018,82.9979 37.332,49.3509 55.9839,112.676 55.9839,190.005z"
           id="path138" /></glyph><glyph
         unicode="N"
         horiz-adv-x="722"
         id="glyph144"><path
           d="M633.993 0l-125.829 0 -318.329 575.004 -1.84251 -0.99212 0 -574.012 -100.006 0 0 697.999 136.005 0 309.995 -561.993 0 0 0 561.993 100.006 0 0 -697.999z"
           id="path142" /></glyph><glyph
         unicode="M"
         horiz-adv-x="943"
         id="glyph148"><path
           d="M853.988 0l-99.9773 0 0 604.002 0 0 -233.006 -604.002 -97.9931 0 -233.006 604.002 0 0 0 -604.002 -100.006 0 0 697.999 162.169 0 221.668 -579.993 217.331 579.993 162.821 0 0 -697.999z"
           id="path146" /></glyph><glyph
         unicode="L"
         horiz-adv-x="499"
         id="glyph152"><path
           d="M479.988 0l-392.001 0 0 697.999 100.006 0 0 -610.012 291.995 0 0 -87.9868z"
           id="path150" /></glyph><glyph
         unicode="K"
         horiz-adv-x="666"
         id="glyph156"><path
           d="M651.001 0l-146.012 0 -310.987 341.998 0 -341.998 -100.006 0 0 697.999 100.006 0 0 -306.99 298.004 306.99 132.32 0 -327.314 -330.007 353.988 -367.991z"
           id="path154" /></glyph><glyph
         unicode="J"
         horiz-adv-x="388"
         id="glyph160"><path
           d="M298.174 179.999c0,-128.012 -65.3382,-191.989 -196.015,-191.989 -32.6549,0 -59.6689,3.99683 -80.9853,11.9905l0 86.0026c18.6519,-6.66138 39.6564,-10.0062 62.9854,-10.0062 42.6611,0 73.02,12.3306 91.0199,36.9919 15.307,21.3447 22.9888,54.3398 22.9888,99.0135l0 485.997 100.006 0 0 -518z"
           id="path158" /></glyph><glyph
         unicode="I"
         horiz-adv-x="277"
         id="glyph164"><path
           d="M189.013 0l-100.006 0 0 697.999 100.006 0 0 -697.999z"
           id="path162" /></glyph><glyph
         unicode="H"
         horiz-adv-x="722"
         id="glyph168"><path
           d="M628.012 0l-100.006 0 0 317.989 -334.004 0 0 -317.989 -100.006 0 0 697.999 100.006 0 0 -291.995 334.004 0 0 291.995 100.006 0 0 -697.999z"
           id="path166" /></glyph><glyph
         unicode="G"
         horiz-adv-x="722"
         id="glyph172"><path
           d="M634.163 18.992c-60.0091,-20.6644 -130.988,-30.9825 -212.994,-30.9825 -111.344,0 -200.493,32.9951 -267.504,98.9852 -67.0106,66.0185 -100.488,154.345 -100.488,265.009 0,107.319 34.9793,194.002 104.995,259.992 68.0027,65.3382 155.99,97.9931 263.989,97.9931 70.0153,0 138.33,-11.6503 205,-34.9793l-7.99365 -100.998c-48.6706,31.9746 -112.676,47.9902 -191.989,47.9902 -79.3412,0 -143.857,-25.5117 -193.52,-76.5066 -49.6627,-50.995 -74.494,-116.503 -74.494,-196.496 0,-77.3286 24.4912,-142.157 73.5019,-194.512 49.0107,-52.3272 112.166,-78.4908 189.495,-78.4908 38.6643,0 75.9964,3.99683 111.996,11.9905l0 212.002 -147.004 0 0 82.0058 247.009 0 0 -363.002z"
           id="path170" /></glyph><glyph
         unicode="F"
         horiz-adv-x="499"
         id="glyph176"><path
           d="M453.994 610.012l-270.99 0 0 -204.008 259 0 0 -88.0152 -259 0 0 -317.989 -100.006 0 0 697.999 370.996 0 0 -87.9868z"
           id="path174" /></glyph><glyph
         unicode="E"
         horiz-adv-x="556"
         id="glyph180"><path
           d="M485.005 0l-391.009 0 0 697.999 391.009 0 0 -87.9868 -291.003 0 0 -204.008 265.009 0 0 -88.0152 -265.009 0 0 -230.002 291.003 0 0 -87.9868z"
           id="path178" /></glyph><glyph
         unicode="D"
         horiz-adv-x="722"
         id="glyph184"><path
           d="M661.007 355.009c0,-116.021 -33.3352,-204.688 -100.006,-266.001 -64.0059,-59.3288 -154.657,-89.0073 -272.011,-89.0073l-205.992 0 0 697.999 205.992 0c106.667,0 194.342,-30.3305 262.997,-90.9916 72.6799,-63.3539 109.02,-147.344 109.02,-251.998zm-106.015 -3.99683c0,77.3286 -23.329,139.832 -69.987,187.482 -46.658,47.6784 -108.339,71.5177 -185.016,71.5177l-116.985 0 0 -522.025 104.995 0c178.015,0 266.994,87.675 266.994,263.025z"
           id="path182" /></glyph><glyph
         unicode="C"
         horiz-adv-x="611"
         id="glyph188"><path
           d="M579.993 13.0109c-40.6486,-16.6676 -93.6561,-25.0014 -158.994,-25.0014 -111.344,0 -200.493,32.9951 -267.504,98.9852 -66.9823,66.0185 -100.488,154.345 -100.488,265.009 0,107.319 34.9793,194.002 104.995,259.992 68.0027,65.3382 155.99,97.9931 263.989,97.9931 59.3288,0 111.684,-9.97789 157.01,-29.9904l-7.99365 -97.001c-43.9934,25.9935 -92.012,39.0045 -143.999,39.0045 -79.3412,0 -143.829,-25.5117 -193.52,-76.5066 -49.6627,-50.995 -74.494,-116.503 -74.494,-196.496 0,-77.3286 24.5195,-142.157 73.5019,-194.512 49.0107,-52.3272 112.166,-78.4908 189.495,-78.4908 62.0217,0 112.676,11.3385 152.021,34.0155l5.98106 -97.001z"
           id="path186" /></glyph><glyph
         unicode="B"
         horiz-adv-x="611"
         id="glyph192"><path
           d="M535.008 186.008c0,-124.015 -88.6672,-186.008 -266.001,-186.008l-186.008 0 0 697.999 189.013 0c163.331,0 244.997,-58.6768 244.997,-176.002 0,-86.6546 -48.0186,-141.987 -143.999,-165.996l0 -2.01259c48.6706,-3.99683 87.8168,-20.9762 117.495,-50.995 29.6502,-29.9904 44.5037,-68.9948 44.5037,-116.985zm-118.006 325.982c0,69.335 -43.0013,104.002 -129.004,104.002l-104.995 0 0 -215.999 54.9918 0c57.3445,0 97.6813,5.01729 121.01,14.9952 38.6643,16.6676 57.9965,49.0107 57.9965,97.001zm11.9905 -316.996c0,82.0058 -60.3209,122.995 -180.991,122.995l-64.998 0 0 -235.983 75.0043 0c113.98,0 170.985,37.6722 170.985,112.988z"
           id="path190" /></glyph><glyph
         unicode="A"
         horiz-adv-x="722"
         id="glyph196"><path
           d="M709.989 0l-108.821 0 -71.0074 176.002 -342.168 0 -70.9791 -176.002 -105.023 0 298.004 697.999 104.995 0 295 -697.999zm-212.314 258.008l-138.67 345.995 -139.01 -345.995 277.68 0z"
           id="path194" /></glyph><glyph
         unicode="@"
         horiz-adv-x="799"
         id="glyph200"><path
           d="M750.014 413.005c0,-55.3319 -13.8613,-105.675 -41.5273,-151.001 -27.666,-45.3257 -66.1602,-80.3334 -115.483,-104.995 -29.9904,-14.6834 -56.6642,-21.9967 -79.9932,-21.9967 -37.332,0 -56.6642,18.6519 -58.0248,55.9839l-1.98424 0c-35.9998,-37.332 -72.3397,-55.9839 -108.991,-55.9839 -42.6895,0 -78.009,15.9873 -106.015,47.9902 -28.0061,32.0029 -42.0092,69.335 -42.0092,111.996 0,65.3382 19.3605,122.343 58.0248,171.013 41.3289,53.3193 93.6561,79.9932 156.982,79.9932 49.3509,0 87.3349,-21.9967 114.009,-66.0185l14.9952 52.0154 75.0043 0 -67.0106 -254.011c-5.3291,-19.9841 -7.99365,-33.9872 -7.99365,-41.9808 0,-16.6676 6.00941,-25.0014 17.9999,-25.0014 35.9998,0 66.3303,22.9888 90.9916,68.9948 20.6928,38.6643 31.0108,78.009 31.0108,118.006 0,75.3161 -25.6534,134.985 -76.9885,178.978 -48.6706,42.0092 -111.344,63.0138 -188.021,63.0138 -83.3097,0 -151.312,-27.836 -203.98,-83.5081 -52.6674,-55.6721 -79.0011,-125.489 -79.0011,-209.507 0,-89.9994 26.1636,-160.667 78.4908,-211.973 52.3272,-51.3351 123.845,-77.0168 214.496,-77.0168 88.6672,0 161.007,29.6786 216.991,89.0073l76.0247 0c-32.6833,-50.0028 -75.3444,-89.0073 -128.012,-117.013 -52.6674,-27.9778 -108.991,-41.9808 -169.001,-41.9808 -109.332,0 -198.509,32.9951 -267.504,98.9852 -68.9948,66.0185 -103.492,153.325 -103.492,262.005 0,105.335 34.6675,191.848 104.002,259.51 69.335,67.6626 156.67,101.48 262.005,101.48 89.9994,0 166.988,-26.6455 230.994,-79.9932 68.6547,-55.9839 103.01,-128.324 103.01,-216.991zm-256.024 -32.9951c0,22.6487 -7.14326,42.321 -21.4865,58.9886 -14.3432,16.6676 -32.825,25.0014 -55.502,25.0014 -38.0124,0 -70.0153,-17.0078 -96.0088,-50.995 -24.6613,-31.351 -36.9919,-66.3303 -36.9919,-104.995 0,-26.0219 7.34169,-47.6784 21.9967,-64.998 14.655,-17.3479 34.6675,-26.0219 60.0091,-26.0219 36.6517,0 67.6626,18.6802 93.0041,56.0122 23.329,33.3352 34.9793,68.9948 34.9793,107.007z"
           id="path198" /></glyph><glyph
         unicode="_"
         horiz-adv-x="499"
         id="glyph204"><path
           d="M500 -125.007l-500 0 0 50.0028 500 0 0 -50.0028z"
           id="path202" /></glyph><glyph
         unicode="^"
         horiz-adv-x="600"
         id="glyph208"><path
           d="M539.997 294.008l-89.6593 0 -150.179 311.667 -150.15 -311.667 -89.9994 0 198.991 403.991 82.0058 0 198.991 -403.991z"
           id="path206" /></glyph><glyph
         unicode="]"
         horiz-adv-x="333"
         id="glyph212"><path
           d="M238.165 -140.002l-188.985 0 0 70.0153 100.998 0 0 755.995 -100.998 0 0 69.987 188.985 0 0 -895.998z"
           id="path210" /></glyph><glyph
         unicode="\"
         horiz-adv-x="277"
         id="glyph216"><path
           d="M302.993 -11.9905l-87.9868 0 -240.008 721.98 88.0152 0 239.98 -721.98z"
           id="path214" /></glyph><glyph
         unicode="["
         horiz-adv-x="333"
         id="glyph220"><path
           d="M284.001 -140.002l-189.013 0 0 895.998 189.013 0 0 -69.987 -100.998 0 0 -755.995 100.998 0 0 -70.0153z"
           id="path218" /></glyph><glyph
         unicode="Z"
         horiz-adv-x="556"
         id="glyph224"><path
           d="M515.165 0l-482.992 0 0 89.9994 361.982 520.012 -349.991 0 0 87.9868 464.992 0 0 -89.6593 -360.99 -520.353 366.999 0 0 -87.9868z"
           id="path222" /></glyph><glyph
         unicode="Y"
         horiz-adv-x="666"
         id="glyph228"><path
           d="M655.99 697.999l-271.983 -406.004 0 -291.995 -100.006 0 0 291.995 -273.003 406.004 116.843 0 207.835 -312.489 203.328 312.489 116.985 0z"
           id="path226" /></glyph><glyph
         unicode="X"
         horiz-adv-x="666"
         id="glyph232"><path
           d="M658.994 0l-126.481 0 -205.681 296.162 -198.821 -296.162 -120.018 0 256.846 362.662 -233.999 335.336 120.16 0 186.32 -268.496 184.676 268.496 114.009 0 -235.019 -333.012 258.008 -364.987z"
           id="path230" /></glyph><glyph
         unicode="W"
         horiz-adv-x="999"
         id="glyph236"><path
           d="M997.987 697.999l-214.978 -697.999 -129.004 0 -151.993 610.012 -2.01259 0 -153.013 -610.012 -133.993 0 -210.981 697.999 109.813 0 167.186 -597.993 1.98424 0 149.016 597.993 141.987 0 151.001 -597.993 2.01259 0 166.988 597.993 105.987 0z"
           id="path234" /></glyph><glyph
         unicode="V"
         horiz-adv-x="666"
         id="glyph240"><path
           d="M661.007 697.999l-266.994 -697.999 -125.007 0 -262.997 697.999 112.166 0 214.836 -610.012 2.49447 -0.141731 220.506 610.154 104.995 0z"
           id="path238" /></glyph><glyph
         unicode="U"
         horiz-adv-x="722"
         id="glyph244"><path
           d="M632.009 288.99c0,-92.664 -21.6849,-165.004 -64.998,-216.991 -46.6863,-56.0122 -115.341,-83.99 -206.021,-83.99 -90.6514,0 -159.334,27.9778 -205.992,83.99 -43.3415,51.9871 -64.998,124.327 -64.998,216.991l0 409.008 100.006 0 0 -395.998c0,-150.66 57.0044,-226.005 170.985,-226.005 114.009,0 171.013,75.3444 171.013,226.005l0 395.998 100.006 0 0 -409.008z"
           id="path242" /></glyph><glyph
         unicode="T"
         horiz-adv-x="556"
         id="glyph248"><path
           d="M545.014 610.012l-217.019 0 0 -610.012 -100.006 0 0 610.012 -216.991 0 0 87.9868 534.016 0 0 -87.9868z"
           id="path246" /></glyph><glyph
         unicode="S"
         horiz-adv-x="499"
         id="glyph252"><path
           d="M453.002 195.986c0,-71.3192 -25.6817,-124.979 -76.9885,-160.979 -44.6737,-31.351 -104.002,-46.9981 -178.015,-46.9981 -36.6517,0 -84.3302,9.66608 -143.007,28.9982l10.0062 93.0041c54.68,-22.677 103.01,-34.0155 144.991,-34.0155 36.6801,0 68.0027,9.66608 94.0246,28.9982 28.6581,21.1747 42.973,49.4926 42.973,84.6703 0,42.6611 -26.1636,78.179 -78.3208,106.837 -32.0029,16.6676 -79.8231,42.1509 -143.659,76.5066 -52.0154,36.6517 -78.009,85.6625 -78.009,147.004 0,61.9933 22.677,109.984 68.0027,143.999 39.9966,30.6423 92.012,45.9777 155.99,45.9777 52.0154,0 101.678,-8.33381 149.016,-25.0014l-14.0031 -91.9837c-48.6706,19.3322 -92.3238,28.9982 -131.016,28.9982 -81.3255,0 -121.974,-31.0108 -121.974,-93.0041 0,-35.3195 25.9935,-67.0106 77.9806,-94.9884 90.6797,-48.6706 138.67,-75.0043 143.999,-79.0011 52.0154,-40.6769 78.009,-93.6844 78.009,-159.023z"
           id="path250" /></glyph><glyph
         unicode="R"
         horiz-adv-x="611"
         id="glyph256"><path
           d="M581.014 0l-114.009 0 -107.007 241.992c-12.6708,28.6864 -27.666,47.6784 -44.9855,57.0044 -14.6834,7.34169 -38.6927,10.9984 -71.9995,10.9984l-60.0091 0 0 -309.995 -100.006 0 0 697.999 171.013 0c83.3097,0 145.643,-10.6582 187,-32.0029 55.9839,-28.6581 83.99,-80.9853 83.99,-156.982 0,-41.3572 -13.4928,-76.3365 -40.5068,-105.023 -26.9857,-28.6581 -61.4831,-46.658 -103.492,-53.9997l0 -1.98424c28.0061,-10.6865 50.6548,-34.0155 68.0027,-70.0153l132.009 -277.992zm-162.027 507.002c0,35.9998 -14.9952,62.9854 -44.9855,80.9853 -24.6613,14.6834 -56.3241,22.0251 -94.9884,22.0251l-96.0088 0 0 -212.002 85.0105 0c41.3289,0 75.3161,7.6535 101.99,22.9888 32.6549,18.6802 48.9824,47.3383 48.9824,86.0026z"
           id="path254" /></glyph><glyph
         unicode="Q"
         horiz-adv-x="777"
         id="glyph260"><path
           d="M725.013 349.34c0,-74.6641 -14.6834,-139.832 -43.8517,-195.844 -32.0029,-61.9933 -79.8231,-107.007 -143.659,-134.985l161.489 -147.514 -123.987 0 -129.996 121.01c-16.0156,-2.66455 -34.6675,-3.99683 -56.0122,-3.99683 -105.335,0 -188.333,34.3273 -248.994,102.982 -57.9965,65.3382 -86.9947,151.341 -86.9947,258.008 0,105.335 29.3384,190.997 87.9868,256.987 61.3413,69.335 143.999,104.002 248.002,104.002 104.002,0 186.66,-34.6675 248.002,-103.832 58.6768,-65.9901 88.0152,-151.653 88.0152,-256.817zm-106.015 -0.340155c0,75.9964 -18.992,139.01 -57.0044,189.013 -41.9808,55.9839 -99.6655,83.99 -172.997,83.99 -73.3318,0 -130.988,-28.0061 -172.997,-83.99 -38.0124,-50.0028 -57.0044,-113.017 -57.0044,-189.013 0,-77.3286 18.6802,-140.654 56.0122,-190.005 41.3289,-55.3319 99.3254,-82.9979 173.989,-82.9979 74.6641,0 132.661,27.666 174.018,82.9979 37.332,49.3509 55.9839,112.676 55.9839,190.005z"
           id="path258" /></glyph><glyph
         unicode="P"
         horiz-adv-x="556"
         id="glyph264"><path
           d="M528.006 489.002c0,-70.6673 -24.3495,-124.327 -73.02,-161.007 -43.3131,-32.6549 -101.31,-48.9824 -173.989,-48.9824l-97.9931 0 0 -279.012 -100.006 0 0 697.999 183.004 0c174.67,0 262.005,-69.6752 262.005,-208.997zm-106.015 0.99212c0,38.6643 -16.6676,68.9948 -50.0028,91.0199 -28.6581,19.3322 -63.3256,28.9982 -103.974,28.9982l-85.0105 0 0 -243.013 98.9852 0c40.0249,0 72.6799,10.3464 98.0214,31.0108 27.9778,22.6487 41.9808,53.3193 41.9808,91.9837z"
           id="path262" /></glyph><glyph
         unicode="o"
         horiz-adv-x="611"
         id="glyph268"><path
           d="M564.998 255.003c0,-75.3444 -24.4912,-138.67 -73.5019,-190.005 -48.9824,-51.3351 -110.834,-76.9885 -185.498,-76.9885 -75.3444,0 -137.508,25.6534 -186.49,76.9885 -49.0107,51.3351 -73.5019,114.661 -73.5019,190.005 0,78.009 23.8392,141.987 71.4893,191.989 47.6784,50.0028 110.494,75.0043 188.503,75.0043 77.3286,0 139.832,-25.0014 187.511,-75.0043 47.6501,-50.0028 71.4893,-113.98 71.4893,-191.989zm-100.006 0c0,50.0028 -13.6629,93.3443 -40.9887,129.996 -29.9904,40.6769 -69.335,61.0012 -118.006,61.0012 -49.3225,0 -89.0073,-20.0125 -118.998,-60.0091 -27.3258,-35.9998 -40.9887,-79.653 -40.9887,-130.988 0,-52.6674 13.3228,-96.6608 39.9966,-132.009 29.3384,-39.3163 69.335,-58.9886 119.99,-58.9886 50.0028,0 89.6593,19.9841 118.998,59.9807 26.6738,35.9998 39.9966,79.6814 39.9966,131.016z"
           id="path266" /></glyph><glyph
         unicode="n"
         horiz-adv-x="611"
         id="glyph272"><path
           d="M531.011 0l-94.0246 0 0 263.989c0,55.3319 -5.64091,96.0088 -16.9794,122.002 -17.3479,39.9966 -49.3509,60.0091 -96.0088,60.0091 -53.9997,0 -93.6561,-22.677 -118.998,-68.0027 -20.6644,-36.6517 -31.0108,-83.99 -31.0108,-141.987l0 -236.011 -93.9963 0 0 510.006 91.0199 0 0 -81.0137 0 0c13.9747,30.0187 37.4738,53.3477 70.3271,70.0153 29.4801,15.3353 61.9933,22.9888 97.6529,22.9888 128.012,0 192.018,-72.9917 192.018,-219.003l0 -302.993z"
           id="path270" /></glyph><glyph
         unicode="m"
         horiz-adv-x="888"
         id="glyph276"><path
           d="M810.987 0l-93.9963 0 0 304.014c0,94.6482 -30.3305,141.987 -90.9916,141.987 -46.658,0 -81.6656,-21.0046 -104.995,-63.0138 -19.3322,-33.9872 -28.9982,-75.9964 -28.9982,-125.999l0 -256.987 -93.9963 0 0 304.014c0,94.6482 -30.3305,141.987 -91.0199,141.987 -46.658,0 -81.6656,-21.0046 -104.995,-63.0138 -19.3322,-33.9872 -28.9982,-75.9964 -28.9982,-125.999l0 -256.987 -93.9963 0 0 510.006 87.9868 0 0 -74.0121 0 0c34.8376,57.3445 89.0073,86.0026 162.509,86.0026 70.8373,0 119.338,-32.9951 145.501,-98.9852 14.0031,29.3101 35.6596,53.1493 65.1681,71.4893 29.5085,18.34 60.491,27.4959 93.3443,27.4959 118.317,0 177.476,-64.998 177.476,-194.994l0 -327.003z"
           id="path274" /></glyph><glyph
         unicode="l"
         horiz-adv-x="277"
         id="glyph280"><path
           d="M186.008 0l-93.9963 0 0 750.014 93.9963 0 0 -750.014z"
           id="path278" /></glyph><glyph
         unicode="k"
         horiz-adv-x="556"
         id="glyph284"><path
           d="M536.992 0l-134.985 0 -228.017 262.005 0 -262.005 -93.9963 0 0 750.014 93.9963 0 0 -447.021 205 207.013 128.012 0 -237.003 -226.005 266.994 -284.001z"
           id="path282" /></glyph><glyph
         unicode="j"
         horiz-adv-x="277"
         id="glyph288"><path
           d="M192.159 623.987l-105.987 0 0 106.015 105.987 0 0 -106.015zm-5.98106 -113.98l0 -535.008c0,-131.328 -48.0186,-197.007 -143.999,-197.007 -26.6738,0 -46.006,1.33228 -58.0248,3.99683l3.00471 81.0137c11.3385,-2.01259 24.0093,-3.00471 38.0124,-3.00471 44.6737,0 66.9823,35.9998 66.9823,107.999l0 542.009 94.0246 0z"
           id="path286" /></glyph><glyph
         unicode="i"
         horiz-adv-x="277"
         id="glyph292"><path
           d="M191.989 623.987l-105.987 0 0 106.015 105.987 0 0 -106.015zm-5.98106 -623.987l-93.9963 0 0 510.006 93.9963 0 0 -510.006z"
           id="path290" /></glyph><glyph
         unicode="h"
         horiz-adv-x="611"
         id="glyph296"><path
           d="M531.011 0l-94.0246 0 0 263.989c0,55.3319 -5.64091,96.0088 -16.9794,122.002 -17.3479,39.9966 -49.3509,60.0091 -96.0088,60.0091 -53.9997,0 -93.6561,-22.677 -118.998,-68.0027 -20.6644,-36.6517 -31.0108,-83.99 -31.0108,-141.987l0 -236.011 -93.9963 0 0 750.014 93.9963 0 0 -313.028 2.01259 0c35.9998,56.6926 90.6514,85.0105 164.012,85.0105 127.331,0 190.997,-72.9917 190.997,-219.003l0 -302.993z"
           id="path294" /></glyph><glyph
         unicode="g"
         horiz-adv-x="611"
         id="glyph300"><path
           d="M531.153 21.9967c0,-162.651 -87.6467,-244.005 -262.997,-244.005 -53.9997,0 -115.001,11.6787 -182.975,35.0077l9.97789 86.9947c66.6704,-30.6707 128.012,-46.006 183.996,-46.006 51.3351,0 91.0199,16.6676 119.026,50.0028 25.9935,30.6707 38.9761,72.3397 38.9761,125.007l0 50.0028 -1.98424 0c-39.9966,-52.6674 -97.001,-79.0011 -171.013,-79.0011 -69.335,0 -123.987,25.0014 -163.983,75.0043 -35.9998,46.006 -53.9997,104.654 -53.9997,176.002 0,73.9838 19.1621,136.317 57.3162,187 42.8312,55.9839 100.176,83.99 171.835,83.99 82.9979,0 139.35,-29.3384 168.83,-87.9868l0 0 0 75.9964 86.9947 0 0 -488.01zm-93.9963 226.997c0,52.6674 -11.3102,97.001 -33.9872,133.001 -26.6738,42.6611 -64.998,64.0059 -115.001,64.0059 -44.6737,0 -80.3334,-21.3447 -107.007,-64.0059 -23.329,-36.6517 -35.0077,-78.6609 -35.0077,-125.999 0,-47.3383 11.6787,-87.9868 35.0077,-122.002 25.9935,-38.6643 61.6815,-57.9965 107.007,-57.9965 45.3257,0 82.0058,17.9999 110.012,53.9997 25.9935,32.6833 38.9761,72.3397 38.9761,118.998z"
           id="path298" /></glyph><glyph
         unicode="f"
         horiz-adv-x="388"
         id="glyph304"><path
           d="M374.993 755.995l-3.99683 -75.9964c-11.9905,3.99683 -26.9857,6.00941 -44.9855,6.00941 -46.6863,0 -75.3444,-19.6723 -86.0026,-59.017 -3.34486,-12.6708 -5.01729,-51.6469 -5.01729,-116.985l135.013 0 0 -75.9964 -135.013 0 0 -434.01 -93.9963 0 0 434.01 -119.99 0 0 75.9964 119.99 0c0,86.0026 7.34169,144.651 21.9967,176.002 23.329,50.6548 73.02,75.9964 149.016,75.9964 17.3196,0 38.3242,-2.01259 62.9854,-6.00941z"
           id="path302" /></glyph><glyph
         unicode="e"
         horiz-adv-x="556"
         id="glyph308"><path
           d="M510.006 233.999l-363.995 0c0,-47.9902 16.1574,-88.327 48.5005,-121.01 32.3148,-32.6549 72.1413,-48.9824 119.48,-48.9824 24.0093,0 51.6753,4.98894 82.9979,14.9952 31.351,10.0062 56.0122,21.9967 74.0121,35.9998l0 -93.9963c-58.6768,-21.9967 -112.336,-32.9951 -161.007,-32.9951 -86.6546,0 -152.673,24.6613 -197.999,73.9838 -43.9934,47.3383 -65.9901,114.661 -65.9901,201.996 0,74.6641 21.0046,135.665 62.9854,183.004 44.0218,50.0028 102.67,75.0043 176.002,75.0043 150.009,0 225.013,-96.0088 225.013,-287.998zm-100.006 70.0153c0,39.9966 -11.3385,73.6436 -33.9872,100.998 -22.677,27.3258 -53.6879,40.9887 -93.0041,40.9887 -39.9966,0 -72.3397,-14.0031 -97.001,-42.0092 -22.677,-25.3132 -35.9998,-58.6484 -39.9966,-99.9773l263.989 0z"
           id="path306" /></glyph><glyph
         unicode="d"
         horiz-adv-x="611"
         id="glyph312"><path
           d="M531.153 0l-89.9994 0 0 71.9995 -3.99683 0c-36.4817,-56.0122 -94.1663,-83.99 -173.167,-83.99 -72.1696,0 -127.983,28.9982 -167.158,86.9947 -33.8171,50.0028 -50.6548,112.988 -50.6548,188.985 0,73.3318 18.17,133.341 54.3115,179.999 39.5147,52.0154 95.1868,78.009 166.846,78.009 79.653,0 136.346,-27.3258 169.823,-82.0058l0 0 0 310.023 93.9963 0 0 -750.014zm-93.9963 254.011c0,51.3351 -11.9905,94.6482 -35.9998,129.996 -27.9778,41.3289 -66.3303,61.9933 -115.001,61.9933 -47.9902,0 -84.3302,-20.3243 -108.991,-61.0012 -20.6644,-33.9872 -31.0108,-76.6767 -31.0108,-128.012 0,-47.9902 11.3385,-90.6514 34.0155,-127.983 25.9935,-43.3415 61.6532,-64.998 107.007,-64.998 47.9902,0 86.0026,20.3243 113.98,61.0012 24.0093,35.9998 35.9998,79.0011 35.9998,129.004z"
           id="path310" /></glyph><glyph
         unicode="c"
         horiz-adv-x="443"
         id="glyph316"><path
           d="M416.01 9.01412c-30.6707,-14.0031 -70.0153,-21.0046 -118.006,-21.0046 -75.3444,0 -137.508,25.6534 -186.519,76.9885 -48.9824,51.3351 -73.4736,114.661 -73.4736,190.005 0,78.009 23.8109,141.987 71.4893,191.989 47.6784,50.0028 110.494,75.0043 188.503,75.0043 42.6611,0 80.6735,-6.66138 114.009,-19.9841l-8.022 -78.009c-35.3195,14.655 -69.335,21.9967 -101.99,21.9967 -50.0028,0 -90.6797,-19.6723 -122.002,-58.9886 -28.0061,-36.6801 -42.0092,-80.6735 -42.0092,-132.009 0,-54.68 14.3432,-99.6655 43.0013,-135.013 31.351,-37.332 73.672,-55.9839 127.02,-55.9839 37.332,0 70.9791,9.66608 100.998,28.9982l7.00153 -83.99z"
           id="path314" /></glyph><glyph
         unicode="b"
         horiz-adv-x="611"
         id="glyph320"><path
           d="M564.998 263.989c0,-75.9964 -16.8377,-138.982 -50.6548,-188.985 -39.1746,-57.9965 -95.0167,-86.9947 -167.186,-86.9947 -79.0011,0 -136.657,27.9778 -173.167,83.99l-3.99683 0 0 -71.9995 -89.9994 0 0 750.014 93.9963 0 0 -310.023 0 0c33.5053,54.68 90.1695,82.0058 169.851,82.0058 71.6594,0 127.331,-25.9935 166.818,-78.009 36.1699,-46.658 54.3398,-106.667 54.3398,-179.999zm-100.006 -7.00153c0,51.3351 -10.318,94.0246 -30.9825,128.012 -24.6896,40.6769 -61.0012,61.0012 -109.02,61.0012 -48.6706,0 -86.9947,-20.6644 -115.001,-61.9933 -23.981,-35.3478 -35.9998,-78.6609 -35.9998,-129.996 0,-50.0028 12.0188,-93.0041 35.9998,-129.004 28.0061,-40.6769 66.0185,-61.0012 114.009,-61.0012 45.3257,0 81.0137,21.6566 107.007,64.998 22.6487,37.332 33.9872,79.9932 33.9872,127.983z"
           id="path318" /></glyph><glyph
         unicode="a"
         horiz-adv-x="556"
         id="glyph324"><path
           d="M481.178 0l-88.0152 0 0 65.9901 0 0c-36.8218,-51.9871 -89.8294,-77.9806 -158.824,-77.9806 -125.517,0 -188.163,52.6674 -188.163,158.002 0,56.976 26.6455,100.317 79.9932,130.166 43.3415,24.4912 95.6687,36.8218 157.01,36.8218 41.9808,0 75.3161,0 99.9773,0 0,46.006 -9.66608,79.653 -28.9982,100.998 -19.3322,21.3447 -51.6469,32.0029 -97.001,32.0029 -57.3162,0 -106.667,-17.3196 -147.996,-51.9871l-4.98894 79.9932c53.3193,32.0029 109.332,47.9902 167.98,47.9902 71.3476,0 123.335,-17.3196 156.018,-51.9871 32.6549,-34.6675 48.9824,-87.675 48.9824,-159.023l0 -210.981c0,-46.6863 1.36062,-79.9932 4.02517,-100.006zm-98.0214 197.999l0 45.0139c-6.66138,0 -16.6676,0.311809 -29.9904,0.99212 -13.3228,0.651964 -23.329,0.99212 -29.9904,0.99212 -118.006,0 -177.023,-32.6549 -177.023,-97.9931 0,-24.0093 9.66608,-43.8233 29.0266,-59.4988 19.3322,-15.6755 41.3289,-23.4991 65.9901,-23.4991 42.6611,0 76.9885,11.8204 103.01,35.4895 25.9935,23.6691 38.9761,56.4941 38.9761,98.5033z"
           id="path322" /></glyph><glyph
         unicode="`"
         horiz-adv-x="277"
         id="glyph328"><path
           d="M205.17 581.014l-67.0106 0 -130.988 143.999 108.991 0 89.0073 -143.999z"
           id="path326" /></glyph><glyph
         unicode=""
         horiz-adv-x="499"
         id="glyph332"><path
           d="M63.0138 0l0 935.002 374.993 0 0 -935.002 -374.993 0zm61.9933 63.0138l249.986 0 0 809.995 -249.986 0 0 -809.995z"
           id="path330" /></glyph><glyph
         unicode="~"
         horiz-adv-x="600"
         id="glyph336"><path
           d="M531.011 262.997c-29.3384,-56.6642 -71.0074,-85.0105 -125.007,-85.0105 -26.6738,0 -65.1681,11.3385 -115.511,34.0155 -50.3146,22.677 -82.8278,33.9872 -97.4829,33.9872 -26.6738,0 -56.0122,-24.3211 -88.0152,-72.9917l-35.9998 70.0153c29.3384,56.6642 71.0074,84.9821 125.007,84.9821 26.6738,0 65.1681,-11.3385 115.511,-33.9872 50.3146,-22.677 82.8278,-34.0155 97.4829,-34.0155 26.6738,0 56.0122,24.3495 88.0152,73.02l35.9998 -70.0153z"
           id="path334" /></glyph><glyph
         unicode="}"
         horiz-adv-x="333"
         id="glyph340"><path
           d="M296.162 273.003c-25.3416,0 -46.006,-10.1763 -61.9933,-30.5006 -16.0156,-20.3243 -24.0093,-43.5115 -24.0093,-69.5051l0 -187c0,-33.3352 -10.6582,-62.6736 -32.0029,-87.9868 -21.3164,-25.3416 -48.3304,-38.0124 -80.9853,-38.0124l-78.009 0 0 70.0153 52.0154 0c32.6549,0 48.9824,25.3132 48.9824,75.9964l0 180.991c0,29.9904 8.33381,56.154 25.0014,78.4908 16.6676,22.3369 39.6848,36.1699 68.9948,41.499l0 2.01259c-62.6453,7.34169 -93.9963,61.6532 -93.9963,162.991 0,12.6708 0.510233,31.6628 1.50235,57.0044 0.99212,25.3416 1.50235,44.3336 1.50235,57.0044 0,66.6704 -17.0078,100.006 -50.995,100.006l-53.0075 0 0 69.987 78.009 0c32.6549,0 59.6689,-12.6708 80.9853,-37.984 21.3447,-25.3416 32.0029,-54.68 32.0029,-88.0152l0 -181.983c0,-27.3542 7.34169,-51.0233 21.9967,-71.0074 16.0156,-22.677 37.332,-34.0155 64.0059,-34.0155l0 -69.987z"
           id="path338" /></glyph><glyph
         unicode="|"
         horiz-adv-x="222"
         id="glyph344"><path
           d="M154.997 -11.9905l-87.9868 0 0 762.005 87.9868 0 0 -762.005z"
           id="path342" /></glyph><glyph
         unicode="{"
         horiz-adv-x="333"
         id="glyph348"><path
           d="M313.992 -140.002l-77.9806 0c-32.0029,0 -58.8469,12.8409 -80.5034,38.4942 -21.6849,25.6817 -32.5132,54.85 -32.5132,87.505l0 182.011c0,27.3258 -7.34169,50.995 -21.9967,70.9791 -15.9873,22.677 -37.332,34.0155 -64.0059,34.0155l0 69.987c25.3416,0 46.3462,10.6865 63.0138,32.0029 15.3353,19.3322 22.9888,42.0092 22.9888,68.0027l0 187c0,32.6833 10.8283,61.8232 32.5132,87.505 21.6566,25.6534 48.5005,38.4942 80.5034,38.4942l77.9806 0 0 -69.987 -53.4894 0c-33.6754,0 -50.5131,-25.3416 -50.5131,-75.9964l0 -181.019c0,-29.3384 -7.99365,-55.3319 -24.151,-77.9806 -16.1574,-22.677 -38.4942,-36.6801 -66.8405,-42.0092l0 -2.01259c62.6736,-7.31334 93.9963,-61.6532 93.9963,-162.991 0,-12.6708 -0.481887,-31.8329 -1.50235,-57.4863 -0.99212,-25.6817 -1.50235,-44.8438 -1.50235,-57.5146 0,-65.9901 17.0078,-98.9852 51.0233,-98.9852l52.9792 0 0 -70.0153z"
           id="path346" /></glyph><glyph
         unicode="z"
         horiz-adv-x="499"
         id="glyph352"><path
           d="M456.999 0l-413.997 0 0 82.0058 294.008 352.004 -280.005 0 0 75.9964 388.996 0 0 -82.0058 -294.008 -352.004 305.006 0 0 -75.9964z"
           id="path350" /></glyph><glyph
         unicode="y"
         horiz-adv-x="499"
         id="glyph356"><path
           d="M484.154 510.006l-187.993 -521.005c-24.6613,-68.6547 -46.3178,-115.993 -64.998,-142.015 -32.6549,-45.9777 -76.3365,-68.9948 -130.988,-68.9948 -17.3479,0 -38.6643,2.35274 -64.0059,7.00153l6.00941 77.0168c15.9873,-5.35745 30.6423,-8.022 43.9934,-8.022 45.3257,0 79.653,30.3589 102.982,91.0199 6.00941,15.9873 9.01412,27.666 9.01412,34.9793 0,2.6929 -6.00941,20.6928 -17.9999,53.9997l-172.997 476.019 102.84 0 136.657 -422.019 1.98424 0.170078 140.513 421.849 94.9884 0z"
           id="path354" /></glyph><glyph
         unicode="x"
         horiz-adv-x="499"
         id="glyph360"><path
           d="M489.994 0l-115.993 0 -125.999 200.011 -125.999 -200.011 -111.996 0 183.996 266.994 -165.996 243.013 116.985 0 111.004 -182.011 113.017 182.011 104.995 0 -164.012 -243.013 179.999 -266.994z"
           id="path358" /></glyph><glyph
         unicode="w"
         horiz-adv-x="833"
         id="glyph364"><path
           d="M820.993 510.006l-163.983 -510.006 -109.19 0 -131.81 428 -2.18266 0 -128.834 -428 -108.991 0 -164.012 510.006 103.01 0 116.985 -422.019 2.01259 0 129.996 422.019 111.004 0 128.012 -422.019 1.98424 0 124.185 422.019 91.8136 0z"
           id="path362" /></glyph><glyph
         unicode="v"
         horiz-adv-x="499"
         id="glyph368"><path
           d="M489.002 510.006l-183.004 -510.006 -111.996 0 -183.004 510.006 103.322 0 137.678 -416.01 2.15432 0 140.853 416.01 93.9963 0z"
           id="path366" /></glyph><glyph
         unicode="u"
         horiz-adv-x="611"
         id="glyph372"><path
           d="M531.011 0l-91.0199 0 0 81.0137 0 0c-14.0031,-30.0187 -37.5021,-53.3477 -70.3271,-70.0153 -29.5085,-15.3353 -61.9933,-22.9888 -97.6529,-22.9888 -128.012,0 -192.018,72.9917 -192.018,219.003l0 302.993 93.9963 0 0 -264.017c0,-55.3319 5.66926,-95.9805 17.0078,-122.002 17.3479,-39.9966 49.3225,-59.9807 96.0088,-59.9807 53.9997,0 93.6561,22.6487 118.998,68.0027 20.6644,36.6517 30.9825,83.99 30.9825,141.987l0 236.011 94.0246 0 0 -510.006z"
           id="path370" /></glyph><glyph
         unicode="t"
         horiz-adv-x="388"
         id="glyph376"><path
           d="M359.176 2.01259c-32.6833,-9.35427 -59.3288,-14.0031 -80.0215,-14.0031 -104.654,0 -156.982,49.3225 -156.982,147.996l0 298.004 -115.001 0 0 75.9964 115.001 0 0 118.006 93.9963 29.9904 0 -147.996 134.985 0 0 -75.9964 -134.985 0 0 -279.012c0,-25.3416 7.00153,-46.8281 21.0046,-64.4878 14.0031,-17.6881 33.3352,-26.5038 57.9965,-26.5038 24.0093,0 45.3257,5.98106 64.0059,17.9999l0 -79.9932z"
           id="path374" /></glyph><glyph
         unicode="s"
         horiz-adv-x="388"
         id="glyph380"><path
           d="M355.009 147.004c0,-49.3509 -17.6881,-88.6672 -53.0075,-118.006 -32.6549,-27.3258 -74.3239,-40.9887 -125.007,-40.9887 -57.9965,0 -104.654,9.32593 -140.002,27.9778l5.01729 84.0184c37.332,-24.0093 76.3365,-35.9998 116.985,-35.9998 25.9935,0 47.6784,5.66926 64.998,17.0078 20.6644,13.3228 31.0108,31.9746 31.0108,55.8138 0,25.3416 -18.992,48.3304 -57.1744,68.9948 -23.1589,12.6708 -58.8185,31.8329 -106.837,57.1744 -37.984,27.3258 -57.0044,61.3413 -57.0044,101.99 0,51.3351 17.6881,91.0199 53.0075,119.026 32.0029,25.3132 74.3523,37.984 126.991,37.984 33.3352,0 72.3397,-6.66138 117.013,-19.9841l-7.99365 -82.0058c-30.6707,17.3196 -63.6657,25.9935 -99.0135,25.9935 -23.329,0 -43.0013,-4.33698 -58.9886,-13.0109 -20.6644,-11.3102 -31.0108,-27.666 -31.0108,-48.9824 0,-27.3542 19.0204,-50.995 57.0044,-71.0074l107.007 -54.9918c37.984,-28.0061 57.0044,-64.998 57.0044,-111.004z"
           id="path378" /></glyph><glyph
         unicode="r"
         horiz-adv-x="388"
         id="glyph384"><path
           d="M364.987 431.005c-14.655,5.98106 -31.9746,8.98577 -51.9871,8.98577 -49.3225,0 -86.0026,-23.6691 -110.012,-70.9791 -19.3322,-37.332 -28.9982,-82.9979 -28.9982,-137.026l0 -231.986 -93.9963 0 0 510.006 88.0152 0 0 -79.0011 0 0c12.1606,25.9935 30.6707,47.6501 55.502,64.998 25.0014,17.3196 51.3351,25.9935 78.831,25.9935 18.8219,0 39.8265,-2.32439 62.6453,-7.00153l0 -83.99z"
           id="path382" /></glyph><glyph
         unicode="q"
         horiz-adv-x="611"
         id="glyph388"><path
           d="M531.153 -209.989l-93.9963 0 0 277 0 0c-32.825,-52.6674 -89.8294,-79.0011 -170.815,-79.0011 -73.02,0 -129.344,28.9982 -168.83,86.9947 -34.1856,50.0028 -51.3351,112.988 -51.3351,188.985 0,73.3318 18.17,133.341 54.3115,179.999 39.5147,52.0154 95.1868,78.009 166.846,78.009 79.0011,0 136.998,-28.3179 173.819,-85.0105l0 0 0 73.02 89.9994 0 0 -719.995zm-93.9963 464c0,51.3351 -11.9905,94.6482 -35.9998,129.996 -27.9778,41.3289 -66.3303,61.9933 -115.001,61.9933 -47.9902,0 -84.3302,-20.3243 -108.991,-61.0012 -20.6644,-33.9872 -31.0108,-76.6767 -31.0108,-128.012 0,-47.9902 11.3385,-90.6514 34.0155,-127.983 25.9935,-43.3415 61.6532,-64.998 107.007,-64.998 47.9902,0 86.0026,20.3243 113.98,61.0012 24.0093,35.9998 35.9998,79.0011 35.9998,129.004z"
           id="path386" /></glyph><glyph
         unicode="p"
         horiz-adv-x="611"
         id="glyph392"><path
           d="M564.998 263.989c0,-75.9964 -17.1778,-138.982 -51.3351,-188.985 -39.4864,-57.9965 -95.8388,-86.9947 -168.83,-86.9947 -80.3334,0 -137.338,27.3258 -170.843,81.9774l0 0 0 -279.976 -93.9963 0 0 719.995 89.9994 0 0 -71.9995 0 0c36.8502,55.9839 94.8466,83.99 173.848,83.99 71.6594,0 127.331,-25.9935 166.818,-78.009 36.1699,-46.658 54.3398,-106.667 54.3398,-179.999zm-100.006 -7.00153c0,51.3351 -10.318,94.0246 -30.9825,128.012 -24.6896,40.6769 -61.0012,61.0012 -109.02,61.0012 -48.6706,0 -86.9947,-20.6644 -115.001,-61.9933 -23.981,-35.3478 -35.9998,-78.6609 -35.9998,-129.996 0,-50.0028 12.0188,-93.0041 35.9998,-129.004 28.0061,-40.6769 66.0185,-61.0012 114.009,-61.0012 45.3257,0 81.0137,21.6566 107.007,64.998 22.6487,37.332 33.9872,79.9932 33.9872,127.983z"
           id="path390" /></glyph><glyph
         unicode=""
         horiz-adv-x="499"
         id="glyph396"><path
           d="M63.0138 0l0 935.002 374.993 0 0 -935.002 -374.993 0zm61.9933 63.0138l249.986 0 0 809.995 -249.986 0 0 -809.995z"
           id="path394" /></glyph><glyph
         unicode=""
         horiz-adv-x="499"
         id="glyph400"><path
           d="M63.0138 0l0 935.002 374.993 0 0 -935.002 -374.993 0zm61.9933 63.0138l249.986 0 0 809.995 -249.986 0 0 -809.995z"
           id="path398" /></glyph><glyph
         unicode=""
         horiz-adv-x="499"
         id="glyph404"><path
           d="M63.0138 0l0 935.002 374.993 0 0 -935.002 -374.993 0zm61.9933 63.0138l249.986 0 0 809.995 -249.986 0 0 -809.995z"
           id="path402" /></glyph><glyph
         unicode=""
         horiz-adv-x="499"
         id="glyph408"><path
           d="M63.0138 0l0 935.002 374.993 0 0 -935.002 -374.993 0zm61.9933 63.0138l249.986 0 0 809.995 -249.986 0 0 -809.995z"
           id="path406" /></glyph><glyph
         unicode=""
         horiz-adv-x="499"
         id="glyph412"><path
           d="M63.0138 0l0 935.002 374.993 0 0 -935.002 -374.993 0zm61.9933 63.0138l249.986 0 0 809.995 -249.986 0 0 -809.995z"
           id="path410" /></glyph><glyph
         unicode=""
         horiz-adv-x="499"
         id="glyph416"><path
           d="M63.0138 0l0 935.002 374.993 0 0 -935.002 -374.993 0zm61.9933 63.0138l249.986 0 0 809.995 -249.986 0 0 -809.995z"
           id="path414" /></glyph><glyph
         unicode=""
         horiz-adv-x="499"
         id="glyph420"><path
           d="M63.0138 0l0 935.002 374.993 0 0 -935.002 -374.993 0zm61.9933 63.0138l249.986 0 0 809.995 -249.986 0 0 -809.995z"
           id="path418" /></glyph><glyph
         unicode=""
         horiz-adv-x="499"
         id="glyph424"><path
           d="M63.0138 0l0 935.002 374.993 0 0 -935.002 -374.993 0zm61.9933 63.0138l249.986 0 0 809.995 -249.986 0 0 -809.995z"
           id="path422" /></glyph><glyph
         unicode=""
         horiz-adv-x="499"
         id="glyph428"><path
           d="M63.0138 0l0 935.002 374.993 0 0 -935.002 -374.993 0zm61.9933 63.0138l249.986 0 0 809.995 -249.986 0 0 -809.995z"
           id="path426" /></glyph><glyph
         unicode=""
         horiz-adv-x="499"
         id="glyph432"><path
           d="M63.0138 0l0 935.002 374.993 0 0 -935.002 -374.993 0zm61.9933 63.0138l249.986 0 0 809.995 -249.986 0 0 -809.995z"
           id="path430" /></glyph><glyph
         unicode=""
         horiz-adv-x="499"
         id="glyph436"><path
           d="M63.0138 0l0 935.002 374.993 0 0 -935.002 -374.993 0zm61.9933 63.0138l249.986 0 0 809.995 -249.986 0 0 -809.995z"
           id="path434" /></glyph><glyph
         unicode=""
         horiz-adv-x="499"
         id="glyph440"><path
           d="M63.0138 0l0 935.002 374.993 0 0 -935.002 -374.993 0zm61.9933 63.0138l249.986 0 0 809.995 -249.986 0 0 -809.995z"
           id="path438" /></glyph><glyph
         unicode=""
         horiz-adv-x="499"
         id="glyph444"><path
           d="M63.0138 0l0 935.002 374.993 0 0 -935.002 -374.993 0zm61.9933 63.0138l249.986 0 0 809.995 -249.986 0 0 -809.995z"
           id="path442" /></glyph><glyph
         unicode=""
         horiz-adv-x="499"
         id="glyph448"><path
           d="M63.0138 0l0 935.002 374.993 0 0 -935.002 -374.993 0zm61.9933 63.0138l249.986 0 0 809.995 -249.986 0 0 -809.995z"
           id="path446" /></glyph><glyph
         unicode=""
         horiz-adv-x="499"
         id="glyph452"><path
           d="M63.0138 0l0 935.002 374.993 0 0 -935.002 -374.993 0zm61.9933 63.0138l249.986 0 0 809.995 -249.986 0 0 -809.995z"
           id="path450" /></glyph><glyph
         unicode=""
         horiz-adv-x="499"
         id="glyph456"><path
           d="M63.0138 0l0 935.002 374.993 0 0 -935.002 -374.993 0zm61.9933 63.0138l249.986 0 0 809.995 -249.986 0 0 -809.995z"
           id="path454" /></glyph><glyph
         unicode=""
         horiz-adv-x="499"
         id="glyph460"><path
           d="M63.0138 0l0 935.002 374.993 0 0 -935.002 -374.993 0zm61.9933 63.0138l249.986 0 0 809.995 -249.986 0 0 -809.995z"
           id="path458" /></glyph><glyph
         unicode=""
         horiz-adv-x="499"
         id="glyph464"><path
           d="M63.0138 0l0 935.002 374.993 0 0 -935.002 -374.993 0zm61.9933 63.0138l249.986 0 0 809.995 -249.986 0 0 -809.995z"
           id="path462" /></glyph><glyph
         unicode=""
         horiz-adv-x="499"
         id="glyph468"><path
           d="M63.0138 0l0 935.002 374.993 0 0 -935.002 -374.993 0zm61.9933 63.0138l249.986 0 0 809.995 -249.986 0 0 -809.995z"
           id="path466" /></glyph><glyph
         unicode=""
         horiz-adv-x="499"
         id="glyph472"><path
           d="M63.0138 0l0 935.002 374.993 0 0 -935.002 -374.993 0zm61.9933 63.0138l249.986 0 0 809.995 -249.986 0 0 -809.995z"
           id="path470" /></glyph><glyph
         unicode=""
         horiz-adv-x="499"
         id="glyph476"><path
           d="M63.0138 0l0 935.002 374.993 0 0 -935.002 -374.993 0zm61.9933 63.0138l249.986 0 0 809.995 -249.986 0 0 -809.995z"
           id="path474" /></glyph><glyph
         unicode=""
         horiz-adv-x="499"
         id="glyph480"><path
           d="M63.0138 0l0 935.002 374.993 0 0 -935.002 -374.993 0zm61.9933 63.0138l249.986 0 0 809.995 -249.986 0 0 -809.995z"
           id="path478" /></glyph><glyph
         unicode=""
         horiz-adv-x="499"
         id="glyph484"><path
           d="M63.0138 0l0 935.002 374.993 0 0 -935.002 -374.993 0zm61.9933 63.0138l249.986 0 0 809.995 -249.986 0 0 -809.995z"
           id="path482" /></glyph><glyph
         unicode=""
         horiz-adv-x="499"
         id="glyph488"><path
           d="M63.0138 0l0 935.002 374.993 0 0 -935.002 -374.993 0zm61.9933 63.0138l249.986 0 0 809.995 -249.986 0 0 -809.995z"
           id="path486" /></glyph><glyph
         unicode=""
         horiz-adv-x="499"
         id="glyph492"><path
           d="M63.0138 0l0 935.002 374.993 0 0 -935.002 -374.993 0zm61.9933 63.0138l249.986 0 0 809.995 -249.986 0 0 -809.995z"
           id="path490" /></glyph><glyph
         unicode=""
         horiz-adv-x="499"
         id="glyph496"><path
           d="M63.0138 0l0 935.002 374.993 0 0 -935.002 -374.993 0zm61.9933 63.0138l249.986 0 0 809.995 -249.986 0 0 -809.995z"
           id="path494" /></glyph><glyph
         unicode=""
         horiz-adv-x="499"
         id="glyph500"><path
           d="M63.0138 0l0 935.002 374.993 0 0 -935.002 -374.993 0zm61.9933 63.0138l249.986 0 0 809.995 -249.986 0 0 -809.995z"
           id="path498" /></glyph><glyph
         unicode=""
         horiz-adv-x="499"
         id="glyph504"><path
           d="M63.0138 0l0 935.002 374.993 0 0 -935.002 -374.993 0zm61.9933 63.0138l249.986 0 0 809.995 -249.986 0 0 -809.995z"
           id="path502" /></glyph><glyph
         unicode=""
         horiz-adv-x="499"
         id="glyph508"><path
           d="M63.0138 0l0 935.002 374.993 0 0 -935.002 -374.993 0zm61.9933 63.0138l249.986 0 0 809.995 -249.986 0 0 -809.995z"
           id="path506" /></glyph><glyph
         unicode=""
         horiz-adv-x="499"
         id="glyph512"><path
           d="M63.0138 0l0 935.002 374.993 0 0 -935.002 -374.993 0zm61.9933 63.0138l249.986 0 0 809.995 -249.986 0 0 -809.995z"
           id="path510" /></glyph><glyph
         unicode=""
         horiz-adv-x="499"
         id="glyph516"><path
           d="M63.0138 0l0 935.002 374.993 0 0 -935.002 -374.993 0zm61.9933 63.0138l249.986 0 0 809.995 -249.986 0 0 -809.995z"
           id="path514" /></glyph><glyph
         unicode=""
         horiz-adv-x="499"
         id="glyph520"><path
           d="M63.0138 0l0 935.002 374.993 0 0 -935.002 -374.993 0zm61.9933 63.0138l249.986 0 0 809.995 -249.986 0 0 -809.995z"
           id="path518" /></glyph><glyph
         unicode="¯"
         horiz-adv-x="277"
         id="glyph524"><path
           d="M287.006 615.001l-296.02 0 0 57.9965 296.02 0 0 -57.9965z"
           id="path522" /></glyph><glyph
         unicode="®"
         horiz-adv-x="799"
         id="glyph528"><path
           d="M761.013 348.999c0,-100.006 -35.1777,-185.158 -105.505,-255.513 -70.3271,-70.3271 -155.508,-105.477 -255.513,-105.477 -100.006,0 -185.158,35.1494 -255.485,105.477 -70.3555,70.3555 -105.505,155.508 -105.505,255.513 0,100.006 35.1494,185.158 105.505,255.513 70.3271,70.3271 155.479,105.477 255.485,105.477 100.006,0 185.186,-35.1494 255.513,-105.477 70.3271,-70.3555 105.505,-155.508 105.505,-255.513zm-88.0152 0c0,80.6735 -25.0014,148.676 -75.0043,204.008 -51.9871,57.9965 -118.006,86.9947 -197.999,86.9947 -79.9932,0 -145.983,-28.9982 -197.999,-86.9947 -50.0028,-55.3319 -75.0043,-123.335 -75.0043,-204.008 0,-80.6735 25.3416,-148.676 75.9964,-204.008 52.0154,-57.9965 117.665,-86.9947 197.007,-86.9947 79.3412,0 145.02,28.9982 197.007,86.9947 50.6548,55.3319 75.9964,123.335 75.9964,204.008zm-105.987 -202.988l-78.179 0 -105.845 176.002 -45.9777 0 0 -176.002 -75.9964 0 0 408.98 151.993 0c100.658,0 151.001,-39.9966 151.001,-119.99 0,-67.3224 -35.6596,-104.002 -107.007,-110.012l110.012 -178.978zm-79.0011 295c0,37.332 -27.666,55.9839 -82.9979,55.9839l-68.0027 0 0 -116.985 66.9823 0c26.6738,0 46.3462,3.31651 59.017,9.97789 16.6676,9.35427 25.0014,26.3337 25.0014,51.0233z"
           id="path526" /></glyph><glyph
         unicode="­"
         horiz-adv-x="600"
         id="glyph532"><path
           d="M553.008 208.997l-506.009 0 0 88.0152 506.009 0 0 -88.0152z"
           id="path530" /></glyph><glyph
         unicode="¬"
         horiz-adv-x="600"
         id="glyph536"><path
           d="M553.008 104.002l-88.0152 0 0 209.989 -417.994 0 0 88.0152 506.009 0 0 -298.004z"
           id="path534" /></glyph><glyph
         unicode="«"
         horiz-adv-x="556"
         id="glyph540"><path
           d="M484.154 67.0106l-87.9868 0 -143.007 201.996 143.007 201.996 87.9868 0 -129.996 -201.996 129.996 -201.996zm-201.996 0l-87.9868 0 -143.007 201.996 143.007 201.996 87.9868 0 -129.996 -201.996 129.996 -201.996z"
           id="path538" /></glyph><glyph
         unicode="ª"
         horiz-adv-x="360"
         id="glyph544"><path
           d="M337.179 400.986l0 -4.98894 -84.0184 0 0 38.0124 0 0c-19.5022,-30.6707 -52.4973,-46.006 -98.8151,-46.006 -34.3557,0 -63.524,7.34169 -87.8451,21.8266 -28.8282,17.1778 -43.3415,41.499 -43.3415,73.1617 0,68.0027 61.0012,102.018 182.833,102.018 16.0156,0 31.8329,0 47.1682,0 0,44.6454 -26.1636,66.9823 -78.3208,66.9823 -42.3493,0 -78.5192,-10.9984 -108.68,-32.9951l-3.00471 63.0138c36.8502,18.6519 76.0247,27.9778 117.524,27.9778 51.4768,0 88.979,-7.99365 112.308,-23.981 28.1762,-19.3322 42.1793,-53.6879 42.1793,-103.01l0 -128.012c0,-5.98106 0.340155,-14.9952 0.99212,-26.9857 0.680311,-11.9905 1.02047,-21.0046 1.02047,-27.014zm-84.0184 105.023l0 26.9857c-4.64879,0 -11.3385,0.340155 -20.1542,0.99212 -8.67396,0.680311 -15.3353,1.02047 -20.1826,1.02047 -71.8295,0 -107.659,-17.9999 -107.659,-53.9997 0,-23.329 19.8424,-35.0077 59.3288,-35.0077 59.187,0 88.6672,20.0125 88.6672,60.0091z"
           id="path542" /></glyph><glyph
         unicode="©"
         horiz-adv-x="799"
         id="glyph548"><path
           d="M761.013 348.999c0,-100.006 -35.1777,-185.158 -105.505,-255.513 -70.3271,-70.3271 -155.508,-105.477 -255.513,-105.477 -100.006,0 -185.158,35.1494 -255.485,105.477 -70.3555,70.3555 -105.505,155.508 -105.505,255.513 0,100.006 35.1494,185.158 105.505,255.513 70.3271,70.3271 155.479,105.477 255.485,105.477 100.006,0 185.186,-35.1494 255.513,-105.477 70.3271,-70.3555 105.505,-155.508 105.505,-255.513zm-88.0152 0c0,80.6735 -25.0014,148.676 -75.0043,204.008 -51.9871,57.9965 -118.006,86.9947 -197.999,86.9947 -79.9932,0 -145.983,-28.9982 -197.999,-86.9947 -50.0028,-55.3319 -75.0043,-123.335 -75.0043,-204.008 0,-80.6735 25.3416,-148.676 75.9964,-204.008 52.0154,-57.9965 117.665,-86.9947 197.007,-86.9947 79.3412,0 145.02,28.9982 197.007,86.9947 50.6548,55.3319 75.9964,123.335 75.9964,204.008zm-90.9916 -64.0059c-7.34169,-46.006 -26.5038,-83.4798 -57.5146,-112.506 -30.9825,-28.9982 -69.5051,-43.4832 -115.483,-43.4832 -62.0217,0 -111.996,21.3164 -150.009,64.0059 -36.6801,40.6486 -54.9918,92.664 -54.9918,155.99 0,64.0059 17.6597,115.681 52.9792,154.997 36.6801,42.0092 86.3428,63.0138 149.016,63.0138 46.658,0 86.1727,-13.5212 118.487,-40.5068 32.3431,-27.014 51.5052,-63.4957 57.5146,-109.502l-72.9917 0c-5.35745,24.6613 -17.3479,44.1635 -36.0281,58.5067 -18.6519,14.3149 -40.6486,21.4865 -65.9901,21.4865 -41.3289,0 -73.3318,-14.3149 -96.0088,-43.0013 -20.6644,-25.9935 -30.9825,-60.3209 -30.9825,-102.982 0,-42.6895 10.6582,-78.009 32.0029,-106.015 23.329,-30.6707 55.6721,-46.006 97.001,-46.006 27.3258,0 50.0028,7.68184 68.0027,23.0172 17.9999,15.3353 28.6581,36.3116 32.0029,62.9854l72.9917 0z"
           id="path546" /></glyph><glyph
         unicode="¨"
         horiz-adv-x="277"
         id="glyph552"><path
           d="M268.014 587.987l-94.0246 0 0 100.006 94.0246 0 0 -100.006zm-164.012 0l-93.9963 0 0 100.006 93.9963 0 0 -100.006z"
           id="path550" /></glyph><glyph
         unicode="§"
         horiz-adv-x="556"
         id="glyph556"><path
           d="M482.992 291.995c0,-45.3257 -23.6691,-87.3349 -70.9791,-125.999 42.6611,-27.3258 63.9775,-65.3382 63.9775,-114.009 0,-57.3162 -24.3211,-101.99 -73.1617,-133.993 -42.1509,-28.0061 -93.3159,-41.9808 -153.325,-41.9808 -60.8311,0 -114.661,8.33381 -161.517,24.9731l9.01412 92.012c44.8438,-23.329 100.006,-35.0077 165.656,-35.0077 30.6707,0 57.5146,7.34169 80.1633,21.9967 26.192,16.6676 39.1746,39.6848 39.1746,69.0232 0,27.9778 -25.6534,51.9871 -76.9885,71.9995 -88.0152,33.9872 -136.005,53.3193 -143.999,57.9965 -51.3351,30.6707 -77.0168,72.6515 -77.0168,125.999 0,53.3193 24.3495,94.6482 73.02,123.987 -46.006,25.3416 -69.0232,64.998 -69.0232,118.998 0,52.0154 23.0172,93.0041 69.0232,123.023 39.3163,25.9935 86.3144,38.9761 140.994,38.9761 45.3257,0 93.3159,-6.32122 143.999,-18.992l-9.01412 -90.9916c-41.9808,18.6519 -82.6577,28.0061 -122.002,28.0061 -85.9743,0 -128.976,-25.3416 -128.976,-76.0247 0,-32.6549 25.9935,-59.3288 77.9806,-79.9932 32.0029,-12.6708 80.3334,-31.6628 145.02,-57.0044 51.9871,-29.3101 77.9806,-70.3271 77.9806,-122.995zm-87.9868 -18.8219c0,35.3195 -24.0093,63.3256 -71.9995,83.99 -16.6676,7.34169 -54.68,22.1668 -114.009,44.8438 -24.6613,-18.6802 -36.9919,-44.6737 -36.9919,-78.009 0,-35.1777 23.981,-62.8437 71.9995,-82.8278 7.99365,-3.34486 46.3178,-17.6597 115.001,-43.1714 23.981,27.3258 35.9998,52.4973 35.9998,75.1743z"
           id="path554" /></glyph><glyph
         unicode="¦"
         horiz-adv-x="222"
         id="glyph560"><path
           d="M154.997 472.986l-87.9868 0 0 277.028 87.9868 0 0 -277.028zm0 -484.976l-87.9868 0 0 277 87.9868 0 0 -277z"
           id="path558" /></glyph><glyph
         unicode="¥"
         horiz-adv-x="556"
         id="glyph564"><path
           d="M550.003 697.999l-180.991 -331.992 100.998 0 0 -57.9965 -133.001 0 -8.022 -16.0156 0 -71.9995 141.023 0 0 -57.9965 -141.023 0 0 -161.999 -99.9773 0 0 161.999 -141.023 0 0 57.9965 141.023 0 0 71.9995 -8.022 16.0156 -133.001 0 0 57.9965 101.026 0 -183.004 331.992 110.324 0 164.664 -313 158.002 313 111.004 0z"
           id="path562" /></glyph><glyph
         unicode="¤"
         horiz-adv-x="556"
         id="glyph568"><path
           d="M532.003 146.012l-50.0028 -51.0233 -53.9997 57.0044c-39.3446,-33.9872 -89.3475,-50.995 -150.009,-50.995 -60.8311,0 -110.154,17.0078 -148.166,51.165l-54.8217 -57.1744 -50.995 51.0233 55.9839 56.976c-33.3352,39.3446 -50.0028,88.1853 -50.0028,146.182 0,62.8437 16.8377,112.166 50.343,148.166l-56.3241 53.6595 50.995 52.0154 54.9918 -55.0201c39.9966,32.6833 89.3475,49.0107 148.166,49.0107 57.9965,0 107.999,-16.3275 150.009,-49.1808l53.8296 55.1902 50.0028 -52.0154 -53.9997 -53.9997c32.0029,-35.9998 47.9902,-85.3223 47.9902,-147.996 0,-59.3288 -15.9873,-107.999 -47.9902,-146.012l53.9997 -56.976zm-93.9963 202.988c0,45.3257 -15.5054,84.3302 -46.5162,117.013 -30.9825,32.6549 -68.8248,48.9824 -113.498,48.9824 -45.3257,0 -83.3381,-16.3275 -113.98,-48.9824 -30.6707,-32.6833 -46.006,-71.6877 -46.006,-117.013 0,-45.3257 15.3353,-84.3302 46.006,-117.013 30.6423,-32.6549 68.6547,-48.9824 113.98,-48.9824 45.354,0 83.3381,16.3275 114.009,48.9824 30.6707,32.6833 46.006,71.6877 46.006,117.013z"
           id="path566" /></glyph><glyph
         unicode="£"
         horiz-adv-x="556"
         id="glyph572"><path
           d="M510.006 690.997l-7.99365 -93.0041c-35.3478,16.0156 -68.683,24.0093 -100.006,24.0093 -101.338,0 -151.993,-55.6721 -151.993,-167.016l0 -48.9824 160.979 0 0 -57.9965 -160.979 0 0 -260.02 246.981 0 0 -87.9868 -438.007 0 0 87.9868 91.0199 0 0 260.02 -79.0011 0 0 57.9965 79.0011 0 0 55.9839c0,76.0247 21.3164,136.346 63.9775,181.019 42.6895,44.6737 102.018,66.9823 178.015,66.9823 40.6769,0 79.9932,-6.32122 118.006,-18.992z"
           id="path570" /></glyph><glyph
         unicode="¢"
         horiz-adv-x="556"
         id="glyph576"><path
           d="M467.005 9.01412c-30.6707,-14.0031 -69.8452,-21.0046 -117.665,-21.0046 -28.6864,0 -55.0201,3.99683 -78.831,11.8204l-39.5147 -132.831 -55.9839 0 43.9934 155.99c-41.3289,23.3573 -73.3318,55.6721 -96.0088,97.001 -22.6487,41.3572 -33.9872,86.3428 -33.9872,135.013 0,78.009 23.8392,141.987 71.4893,191.989 47.6784,50.0028 110.494,75.0043 188.503,75.0043 6.00941,0 10.6582,0 14.0031,0l32.9951 111.996 57.0044 0 -35.0077 -118.998c10.0062,-1.98424 25.0014,-6.32122 45.0139,-12.9826l-8.022 -78.009c-19.9841,8.67396 -39.3163,14.3432 -57.9965,17.0078l-105.477 -364.845c21.9967,-8.16373 44.4753,-12.1606 67.1523,-12.1606 38.1541,0 71.8295,9.66608 101.338,28.9982l7.00153 -83.99zm-125.999 435.994c-47.3383,-3.34486 -85.0105,-24.3495 -113.017,-63.0138 -25.9935,-35.3195 -38.9761,-77.6688 -38.9761,-126.991 0,-61.3413 18.3117,-110.012 54.8217,-146.012l97.171 336.017z"
           id="path574" /></glyph><glyph
         unicode="¡"
         horiz-adv-x="388"
         id="glyph580"><path
           d="M251.006 398.01l-111.996 0 0 111.996 111.996 0 0 -111.996zm0 -586.003l-111.996 0 12.9826 501.984 86.0026 0 13.0109 -501.984z"
           id="path578" /></glyph><glyph
         unicode=" "
         horiz-adv-x="250"
         id="glyph582" /><glyph
         unicode="¿"
         horiz-adv-x="499"
         id="glyph586"><path
           d="M305.176 398.01l-111.996 0 0 111.996 111.996 0 0 -111.996zm120.982 -564.998c-50.6548,-22.0251 -105.987,-33.0234 -165.996,-33.0234 -58.6484,0 -108.339,15.3353 -148.988,46.006 -44.6737,33.3352 -67.0106,78.6609 -67.0106,136.005 0,43.9934 16.3275,87.3349 49.0107,129.996 13.3228,16.6676 42.6611,53.6595 87.9868,111.004 14.0031,21.9967 21.0046,52.3272 21.0046,90.9916l93.9963 0 0 -21.0046c0,-44.8155 -12.5007,-84.1601 -37.6722,-118.317 -15.9873,-18.5101 -39.4864,-47.1682 -70.3271,-85.6625 -25.3416,-32.0029 -37.984,-65.3382 -37.984,-100.006 0,-33.3352 12.3306,-58.9886 36.9919,-76.9885 21.3164,-16.0156 49.3225,-24.0093 83.99,-24.0093 61.9933,0 111.344,13.3228 147.996,39.9966l7.00153 -94.9884z"
           id="path584" /></glyph><glyph
         unicode="¾"
         horiz-adv-x="834"
         id="glyph590"><path
           d="M801.179 82.9979l-52.0154 0 0 -82.9979 -87.9868 0 0 82.9979 -212.002 0 0 62.6736 186.49 276.32 113.498 0 0 -268.978 52.0154 0 0 -70.0153zm-110.012 636.998l-432.989 -741.992 -71.9995 0 432.989 741.992 71.9995 0zm-360.99 -324.99c0,-79.3412 -61.6815,-118.998 -185.016,-118.998 -36.6517,0 -74.3239,5.3291 -112.988,15.9873l10.0062 75.9964c15.9873,-14.655 47.3099,-21.9967 93.9963,-21.9967 24.6613,0 46.3178,3.34486 64.998,10.0062 27.3258,9.32593 40.9887,23.6691 40.9887,43.0013 0,29.9904 -18.992,50.0028 -57.0044,60.0091 -17.9999,4.64879 -48.6706,7.00153 -91.9837,7.00153l0 69.987c96.6608,0 144.991,18.992 144.991,57.0044 0,31.3226 -29.6786,46.9981 -89.0073,46.9981 -30.6707,0 -62.9854,-7.34169 -97.001,-21.9967l-3.99683 71.9995c36.6801,13.3228 77.6688,19.9841 122.995,19.9841 41.3572,0 76.0247,-8.33381 104.002,-25.0014 34.0155,-19.9841 51.0233,-49.3225 51.0233,-87.9868 0,-50.0028 -33.3352,-81.6656 -100.006,-94.9884l0 -2.01259c30.6707,-3.99683 55.6721,-14.9952 75.0043,-32.9951 19.3322,-17.9999 28.9982,-42.0092 28.9982,-71.9995zm330.999 -241.992l0 198.991 0 0 -130.024 -198.991 130.024 0z"
           id="path588" /></glyph><glyph
         unicode="½"
         horiz-adv-x="834"
         id="glyph594"><path
           d="M801.009 0l-298.997 0 0 75.9964c69.987,57.9965 110.664,92.3238 121.974,103.01 54.68,51.9871 82.0058,93.3159 82.0058,123.987 0,18.6802 -9.32593,32.9951 -28.0061,43.0013 -14.655,7.99365 -31.9746,12.0188 -51.9871,12.0188 -36.6517,0 -71.3192,-9.66608 -104.002,-29.0266l-6.00941 74.0121c39.3446,16.6676 81.0137,25.0014 125.007,25.0014 42.6611,0 77.6688,-9.32593 104.995,-28.1762 32.0029,-21.4865 48.0186,-52.6674 48.0186,-93.486 0,-34.8376 -24.0093,-79.5113 -71.9995,-133.851 -43.3415,-48.8123 -83.3381,-82.9979 -120.018,-102.5l0 0 199.019 0 0 -69.987zm-183.996 719.995l-433.018 -741.992 -71.9995 0 433.018 741.992 71.9995 0zm-392.001 -438.007l-88.0152 0 0 345.853 -69.987 -54.85 -34.0155 46.006 111.004 85.0105 81.0137 0 0 -422.019z"
           id="path592" /></glyph><glyph
         unicode="¼"
         horiz-adv-x="834"
         id="glyph598"><path
           d="M801.009 82.9979l-52.0154 0 0 -82.9979 -87.9868 0 0 82.9979 -212.002 0 0 62.6736 186.49 276.32 113.498 0 0 -268.978 52.0154 0 0 -70.0153zm-153.013 636.998l-432.989 -741.992 -71.9995 0 432.989 741.992 71.9995 0zm-422.983 -438.007l-88.0152 0 0 345.853 -69.987 -54.85 -34.0155 46.006 111.004 85.0105 81.0137 0 0 -422.019zm435.994 -128.976l0 198.991 0 0 -129.996 -198.991 129.996 0z"
           id="path596" /></glyph><glyph
         unicode="»"
         horiz-adv-x="556"
         id="glyph602"><path
           d="M504.989 269.006l-142.979 -201.996 -88.0152 0 129.996 201.996 -129.996 201.996 88.0152 0 142.979 -201.996zm-201.996 0l-143.007 -201.996 -87.9868 0 129.996 201.996 -129.996 201.996 87.9868 0 143.007 -201.996z"
           id="path600" /></glyph><glyph
         unicode="º"
         horiz-adv-x="396"
         id="glyph606"><path
           d="M370.174 549.011c0,-47.3383 -16.6676,-86.0026 -50.0028,-116.021 -33.3352,-29.9904 -74.0121,-44.9855 -122.002,-44.9855 -47.9902,0 -88.6672,14.9952 -122.002,44.9855 -33.3352,30.0187 -50.0028,68.683 -50.0028,116.021 0,49.3225 16.3275,88.4971 49.0107,117.495 32.6549,28.9982 73.672,43.4832 122.995,43.4832 50.0028,0 90.9916,-14.0031 122.995,-41.9808 32.6833,-30.0187 49.0107,-69.6752 49.0107,-118.998zm-82.0058 0c0,29.9904 -7.68184,54.6516 -22.9888,73.9838 -15.3353,19.3322 -37.6722,28.9982 -67.0106,28.9982 -29.3384,0 -51.6753,-9.66608 -67.0106,-28.9982 -15.3353,-19.3322 -22.9888,-43.9934 -22.9888,-73.9838 0,-68.683 29.9904,-103.01 89.9994,-103.01 60.0091,0 89.9994,34.3273 89.9994,103.01z"
           id="path604" /></glyph><glyph
         unicode="¹"
         horiz-adv-x="360"
         id="glyph610"><path
           d="M242.162 281.989l-87.9868 0 0 345.853 -70.0153 -54.85 -33.9872 46.006 111.004 85.0105 80.9853 0 0 -422.019z"
           id="path608" /></glyph><glyph
         unicode="¸"
         horiz-adv-x="277"
         id="glyph614"><path
           d="M316.004 -129.996c0,-32.0029 -14.6834,-56.0122 -43.9934,-71.9995 -24.0093,-13.3511 -53.0075,-20.0125 -87.0231,-20.0125 -30.6423,0 -58.6484,7.00153 -83.99,21.0046l17.9999 34.0155c24.0093,-10.0062 45.6659,-15.0235 64.998,-15.0235 37.332,0 56.0122,15.3353 56.0122,46.006 0,25.9935 -15.3353,39.0045 -46.006,39.0045 -12.6708,0 -26.3337,-2.66455 -40.9887,-7.99365l-17.0078 18.992 64.0059 86.0026 46.9981 0 -46.006 -60.0091 1.98424 -1.98424c9.35427,3.31651 19.3322,4.98894 30.0187,4.98894 23.329,0 43.0013,-6.4913 58.9886,-19.5022 16.0156,-12.9826 24.0093,-30.8408 24.0093,-53.4894z"
           id="path612" /></glyph><glyph
         unicode="·"
         horiz-adv-x="277"
         id="glyph618"><path
           d="M197.999 304.014c0,-16.0156 -5.66926,-30.0187 -17.0078,-42.0092 -11.3102,-11.9905 -25.0014,-17.9999 -40.9887,-17.9999 -16.0156,0 -29.9904,6.00941 -42.0092,17.9999 -11.9905,11.9905 -17.9999,25.9935 -17.9999,42.0092 0,15.9873 6.00941,29.6502 17.9999,40.9887 12.0188,11.3385 25.9935,17.0078 42.0092,17.0078 15.9873,0 29.6786,-5.66926 40.9887,-17.0078 11.3385,-11.3385 17.0078,-25.0014 17.0078,-40.9887z"
           id="path616" /></glyph><glyph
         unicode="¶"
         horiz-adv-x="600"
         id="glyph622"><path
           d="M527.156 -111.996l-87.9868 0 0 740.008 -115.001 0 0 -740.008 -88.0152 0 0 445.008c-59.3288,0 -108.991,14.655 -148.988,43.9934 -44.6737,32.6549 -67.0106,77.6688 -67.0106,134.985 0,124.015 78.6893,186.008 236.011,186.008l270.99 0 0 -809.995z"
           id="path620" /></glyph><glyph
         unicode="µ"
         horiz-adv-x="611"
         id="glyph626"><path
           d="M531.011 0l-91.0199 0 0 81.0137 0 0c-14.1448,-30.0187 -37.6439,-53.3477 -70.4972,-70.0153 -29.6502,-15.3353 -62.1634,-22.9888 -97.823,-22.9888 -40.847,0 -73.5019,6.66138 -97.6813,19.9841l0 -217.983 -93.9963 0 0 719.995 93.9963 0 0 -264.017c0,-55.3319 5.66926,-95.9805 17.0078,-122.002 17.3479,-39.9966 49.3225,-59.9807 96.0088,-59.9807 53.9997,0 93.6561,22.6487 118.998,68.0027 20.6644,36.6517 30.9825,83.99 30.9825,141.987l0 236.011 94.0246 0 0 -510.006z"
           id="path624" /></glyph><glyph
         unicode="´"
         horiz-adv-x="277"
         id="glyph630"><path
           d="M270.99 725.013l-130.988 -143.999 -67.0106 0 89.0073 143.999 108.991 0z"
           id="path628" /></glyph><glyph
         unicode="³"
         horiz-adv-x="360"
         id="glyph634"><path
           d="M330.007 395.005c0,-79.3412 -61.6815,-118.998 -185.016,-118.998 -36.6517,0 -74.3239,5.3291 -112.988,15.9873l10.0062 75.9964c15.9873,-14.655 47.3383,-21.9967 93.9963,-21.9967 24.6613,0 46.3178,3.34486 64.998,10.0062 27.3258,9.32593 40.9887,23.6691 40.9887,43.0013 0,29.9904 -18.992,50.0028 -57.0044,60.0091 -17.9999,4.64879 -48.6422,7.00153 -91.9837,7.00153l0 69.987c96.6608,0 144.991,18.992 144.991,57.0044 0,31.3226 -29.6502,46.9981 -89.0073,46.9981 -30.6423,0 -62.9854,-7.34169 -97.001,-21.9967l-3.99683 71.9995c36.6801,13.3228 77.6688,19.9841 123.023,19.9841 41.3289,0 75.9964,-8.33381 103.974,-25.0014 34.0155,-19.9841 51.0233,-49.3225 51.0233,-87.9868 0,-50.0028 -33.3352,-81.6656 -100.006,-94.9884l0 -2.01259c30.6707,-3.99683 55.6721,-14.9952 75.0043,-32.9951 19.3322,-17.9999 28.9982,-42.0092 28.9982,-71.9995z"
           id="path632" /></glyph><glyph
         unicode="²"
         horiz-adv-x="360"
         id="glyph638"><path
           d="M330.007 281.989l-298.997 0 0 76.0247c69.987,57.9965 110.664,92.3238 122.002,102.982 54.6516,52.0154 81.9774,93.3443 81.9774,124.015 0,18.6519 -9.32593,32.9951 -27.9778,43.0013 -14.6834,7.99365 -32.0029,11.9905 -52.0154,11.9905 -36.6517,0 -71.3192,-9.66608 -104.002,-28.9982l-5.98106 73.9838c39.3163,16.6676 80.9853,25.0014 124.979,25.0014 42.6611,0 77.6688,-9.32593 104.995,-28.1479 32.0029,-21.5148 48.0186,-52.6674 48.0186,-93.5144 0,-34.8376 -24.0093,-79.483 -71.9995,-133.823 -43.3415,-48.8406 -83.3381,-82.9979 -120.018,-102.5l0 0 199.019 0 0 -70.0153z"
           id="path636" /></glyph><glyph
         unicode="±"
         horiz-adv-x="600"
         id="glyph642"><path
           d="M553.008 270.99l-208.997 0 0 -147.004 -88.0152 0 0 147.004 -208.997 0 0 88.0152 208.997 0 0 147.004 88.0152 0 0 -147.004 208.997 0 0 -88.0152zm0 -270.99l-506.009 0 0 87.9868 506.009 0 0 -87.9868z"
           id="path640" /></glyph><glyph
         unicode="°"
         horiz-adv-x="399"
         id="glyph646"><path
           d="M342.99 567.011c0,-39.3446 -14.0031,-73.02 -41.9808,-100.998 -28.0061,-28.0061 -61.6815,-42.0092 -100.998,-42.0092 -39.3446,0 -73.02,14.0031 -100.998,42.0092 -28.0061,27.9778 -42.0092,61.6532 -42.0092,100.998 0,39.3163 14.0031,72.9917 42.0092,100.998 27.9778,27.9778 61.6532,41.9808 100.998,41.9808 39.3163,0 72.9917,-14.0031 100.998,-41.9808 27.9778,-28.0061 41.9808,-61.6815 41.9808,-100.998zm-63.9775 0c0,21.9967 -7.68184,40.6486 -23.0172,55.9839 -15.3353,15.3353 -33.9872,23.0172 -55.9839,23.0172 -22.0251,0 -40.6769,-7.68184 -56.0122,-23.0172 -15.3353,-15.3353 -22.9888,-33.9872 -22.9888,-55.9839 0,-21.9967 7.6535,-40.6769 22.9888,-56.0122 15.3353,-15.3353 33.9872,-22.9888 56.0122,-22.9888 21.9967,0 40.6486,7.6535 55.9839,22.9888 15.3353,15.3353 23.0172,34.0155 23.0172,56.0122z"
           id="path644" /></glyph><glyph
         unicode="Ï"
         horiz-adv-x="277"
         id="glyph650"><path
           d="M189.013 0l-100.006 0 0 697.999 100.006 0 0 -697.999zm79.0011 755.995l-94.0246 0 0 100.006 94.0246 0 0 -100.006zm-164.012 0l-93.9963 0 0 100.006 93.9963 0 0 -100.006z"
           id="path648" /></glyph><glyph
         unicode="Î"
         horiz-adv-x="277"
         id="glyph654"><path
           d="M189.013 0l-100.006 0 0 697.999 100.006 0 0 -697.999zm94.9884 748.994l-80.3334 0 -65.6783 97.9931 -64.8279 -97.9931 -79.1712 0 99.0135 143.999 90.9916 0 100.006 -143.999z"
           id="path652" /></glyph><glyph
         unicode="Í"
         horiz-adv-x="277"
         id="glyph658"><path
           d="M189.013 0l-100.006 0 0 697.999 100.006 0 0 -697.999zm81.9774 892.993l-130.988 -143.999 -67.0106 0 89.0073 143.999 108.991 0z"
           id="path656" /></glyph><glyph
         unicode="Ì"
         horiz-adv-x="277"
         id="glyph662"><path
           d="M189.013 0l-100.006 0 0 697.999 100.006 0 0 -697.999zm16.1574 748.994l-67.0106 0 -130.988 143.999 108.991 0 89.0073 -143.999z"
           id="path660" /></glyph><glyph
         unicode="Ë"
         horiz-adv-x="556"
         id="glyph666"><path
           d="M485.005 0l-391.009 0 0 697.999 391.009 0 0 -87.9868 -291.003 0 0 -204.008 265.009 0 0 -88.0152 -265.009 0 0 -230.002 291.003 0 0 -87.9868zm-78.009 755.995l-93.9963 0 0 100.006 93.9963 0 0 -100.006zm-163.983 0l-94.0246 0 0 100.006 94.0246 0 0 -100.006z"
           id="path664" /></glyph><glyph
         unicode="Ê"
         horiz-adv-x="556"
         id="glyph670"><path
           d="M485.005 0l-391.009 0 0 697.999 391.009 0 0 -87.9868 -291.003 0 0 -204.008 265.009 0 0 -88.0152 -265.009 0 0 -230.002 291.003 0 0 -87.9868zm-61.9933 748.994l-80.3334 0 -65.6783 97.9931 -64.8279 -97.9931 -79.1712 0 98.9852 143.999 91.0199 0 100.006 -143.999z"
           id="path668" /></glyph><glyph
         unicode="É"
         horiz-adv-x="556"
         id="glyph674"><path
           d="M485.005 0l-391.009 0 0 697.999 391.009 0 0 -87.9868 -291.003 0 0 -204.008 265.009 0 0 -88.0152 -265.009 0 0 -230.002 291.003 0 0 -87.9868zm-75.0043 892.993l-130.988 -143.999 -67.0106 0 89.0073 143.999 108.991 0z"
           id="path672" /></glyph><glyph
         unicode="È"
         horiz-adv-x="556"
         id="glyph678"><path
           d="M485.005 0l-391.009 0 0 697.999 391.009 0 0 -87.9868 -291.003 0 0 -204.008 265.009 0 0 -88.0152 -265.009 0 0 -230.002 291.003 0 0 -87.9868zm-140.824 748.994l-67.0106 0 -131.016 143.999 109.02 0 89.0073 -143.999z"
           id="path676" /></glyph><glyph
         unicode="Ç"
         horiz-adv-x="611"
         id="glyph682"><path
           d="M579.993 13.0109c-40.6486,-16.6676 -93.6561,-25.0014 -158.994,-25.0014 -111.344,0 -200.493,32.9951 -267.504,98.9852 -66.9823,66.0185 -100.488,154.345 -100.488,265.009 0,107.319 34.9793,194.002 104.995,259.992 68.0027,65.3382 155.99,97.9931 263.989,97.9931 59.3288,0 111.684,-9.97789 157.01,-29.9904l-7.99365 -97.001c-43.9934,25.9935 -92.012,39.0045 -143.999,39.0045 -79.3412,0 -143.829,-25.5117 -193.52,-76.5066 -49.6627,-50.995 -74.494,-116.503 -74.494,-196.496 0,-77.3286 24.5195,-142.157 73.5019,-194.512 49.0107,-52.3272 112.166,-78.4908 189.495,-78.4908 62.0217,0 112.676,11.3385 152.021,34.0155l5.98106 -97.001zm-104.995 -143.007c0,-32.0029 -14.655,-56.0122 -43.9934,-71.9995 -24.0093,-13.3511 -53.0075,-20.0125 -86.9947,-20.0125 -30.6707,0 -58.6768,7.00153 -84.0184,21.0046l17.9999 34.0155c24.0093,-10.0062 45.6659,-15.0235 64.998,-15.0235 37.332,0 56.0122,15.3353 56.0122,46.006 0,25.9935 -15.3353,39.0045 -46.006,39.0045 -12.6708,0 -26.3337,-2.66455 -40.9887,-7.99365l-17.0078 18.992 64.0059 86.0026 46.9981 0 -46.006 -60.0091 2.01259 -1.98424c9.32593,3.31651 19.3322,4.98894 29.9904,4.98894 23.329,0 43.0013,-6.4913 58.9886,-19.5022 16.0156,-12.9826 24.0093,-30.8408 24.0093,-53.4894z"
           id="path680" /></glyph><glyph
         unicode="Æ"
         horiz-adv-x="943"
         id="glyph686"><path
           d="M873.179 0l-347.015 0 -10.9984 176.002 -296.672 0 -105.335 -176.002 -111.004 0 422.019 697.999 438.999 0 0 -87.9868 -277 0 12.9826 -204.008 246.017 0 0 -88.0152 -241 0 14.0031 -230.002 255.003 0 0 -87.9868zm-363.002 258.008l-22.1668 370.004 -2.01259 0.141731 -219.173 -370.146 243.353 0z"
           id="path684" /></glyph><glyph
         unicode="Å"
         horiz-adv-x="722"
         id="glyph690"><path
           d="M709.989 0l-108.821 0 -71.0074 176.002 -342.168 0 -70.9791 -176.002 -105.023 0 298.004 697.999 104.995 0 295 -697.999zm-212.314 258.008l-138.67 345.995 -139.01 -345.995 277.68 0zm-34.6675 575.004c0,-27.3542 -10.1763,-51.165 -30.5006,-71.5177 -20.3526,-20.3243 -44.1635,-30.5006 -71.5177,-30.5006 -27.3258,0 -51.165,10.1763 -71.4893,30.5006 -20.3243,20.3526 -30.5006,44.1635 -30.5006,71.5177 0,27.9778 10.0062,51.9871 29.9904,71.9995 20.0125,19.9841 44.0218,29.9904 71.9995,29.9904 27.3542,0 51.165,-10.1763 71.5177,-30.5006 20.3243,-20.3243 30.5006,-44.1635 30.5006,-71.4893zm-39.9966 0c0,16.6676 -6.17949,31.1526 -18.5101,43.4832 -12.3306,12.3306 -26.8439,18.5101 -43.5115,18.5101 -16.6676,0 -31.1526,-6.17949 -43.4832,-18.5101 -12.3306,-12.3306 -18.5101,-26.8156 -18.5101,-43.4832 0,-16.6676 6.17949,-31.1809 18.5101,-43.5115 12.3306,-12.3306 26.8156,-18.5101 43.4832,-18.5101 16.0156,0 30.3305,6.34957 43.0013,19.0204 12.6708,12.6424 19.0204,26.9857 19.0204,43.0013z"
           id="path688" /></glyph><glyph
         unicode="Ä"
         horiz-adv-x="722"
         id="glyph694"><path
           d="M709.989 0l-108.821 0 -71.0074 176.002 -342.168 0 -70.9791 -176.002 -105.023 0 298.004 697.999 104.995 0 295 -697.999zm-212.314 258.008l-138.67 345.995 -139.01 -345.995 277.68 0zm-7.68184 497.987l-93.9963 0 0 100.006 93.9963 0 0 -100.006zm-163.983 0l-94.0246 0 0 100.006 94.0246 0 0 -100.006z"
           id="path692" /></glyph><glyph
         unicode="Ã"
         horiz-adv-x="722"
         id="glyph698"><path
           d="M709.989 0l-108.821 0 -71.0074 176.002 -342.168 0 -70.9791 -176.002 -105.023 0 298.004 697.999 104.995 0 295 -697.999zm-212.314 258.008l-138.67 345.995 -139.01 -345.995 277.68 0zm33.3352 607.999c-10.0062,-74.6641 -41.3572,-111.996 -94.0246,-111.996 -17.9999,0 -44.3336,7.6535 -78.9727,22.9888 -34.6675,15.3353 -59.6689,22.9888 -75.0043,22.9888 -26.6738,0 -42.0092,-15.3353 -46.006,-45.9777l-46.006 0c10.0062,74.6641 41.3289,111.996 93.9963,111.996 17.9999,0 44.3336,-7.68184 79.0011,-23.0172 34.6675,-15.3353 59.6689,-22.9888 75.0043,-22.9888 26.6738,0 42.0092,15.3353 46.006,46.006l46.006 0z"
           id="path696" /></glyph><glyph
         unicode="Â"
         horiz-adv-x="722"
         id="glyph702"><path
           d="M709.989 0l-108.821 0 -71.0074 176.002 -342.168 0 -70.9791 -176.002 -105.023 0 298.004 697.999 104.995 0 295 -697.999zm-212.314 258.008l-138.67 345.995 -139.01 -345.995 277.68 0zm8.33381 490.986l-80.3334 0 -65.6783 97.9931 -64.8279 -97.9931 -79.1712 0 99.0135 143.999 90.9916 0 100.006 -143.999z"
           id="path700" /></glyph><glyph
         unicode="Á"
         horiz-adv-x="722"
         id="glyph706"><path
           d="M709.989 0l-108.821 0 -71.0074 176.002 -342.168 0 -70.9791 -176.002 -105.023 0 298.004 697.999 104.995 0 295 -697.999zm-212.314 258.008l-138.67 345.995 -139.01 -345.995 277.68 0zm-4.67714 634.985l-130.988 -143.999 -67.0106 0 89.0073 143.999 108.991 0z"
           id="path704" /></glyph><glyph
         unicode="À"
         horiz-adv-x="722"
         id="glyph710"><path
           d="M709.989 0l-108.821 0 -71.0074 176.002 -342.168 0 -70.9791 -176.002 -105.023 0 298.004 697.999 104.995 0 295 -697.999zm-212.314 258.008l-138.67 345.995 -139.01 -345.995 277.68 0zm-70.4972 490.986l-67.0106 0 -130.988 143.999 108.991 0 89.0073 -143.999z"
           id="path708" /></glyph><glyph
         unicode="ß"
         horiz-adv-x="611"
         id="glyph714"><path
           d="M560.009 216.991c0,-66.6704 -20.3526,-120.5 -61.0012,-161.489 -40.6769,-40.9887 -93.9963,-61.5114 -160.015,-61.5114 -33.3352,0 -65.65,4.67714 -97.001,14.0031l0 79.0011c26.0219,-11.3385 52.3272,-17.0078 79.0011,-17.0078 42.6611,0 76.5066,13.181 101.508,39.5147 25.0014,26.3337 37.5021,60.8311 37.5021,103.492 0,55.3319 -18.6802,94.3364 -56.0122,117.013 -28.6581,17.9999 -72.6515,26.9857 -131.98,26.9857l0 75.9964c50.6548,0 88.327,8.67396 112.988,26.0219 28.6581,20.6644 43.0013,55.3319 43.0013,104.002 0,34.6392 -10.1763,63.8075 -30.5006,87.4766 -20.3243,23.6691 -47.5084,35.5179 -81.4955,35.5179 -51.3351,0 -89.0073,-21.3447 -113.017,-64.0059 -19.3322,-34.0155 -28.9982,-78.3491 -28.9982,-133.001l0 -489.002 -93.9963 0 0 474.006c0,91.9837 17.3479,161.319 52.0154,208.005 39.9966,53.3193 104.314,79.9932 192.981,79.9932 57.9965,0 106.355,-18.34 145.02,-54.9918 38.6643,-36.6801 57.9965,-83.6782 57.9965,-141.023 0,-84.6703 -39.0045,-138.982 -117.013,-162.991l0 -2.01259c44.6737,-5.3291 80.6735,-25.8235 107.999,-61.4831 27.3542,-35.6596 41.0171,-76.5066 41.0171,-122.513z"
           id="path712" /></glyph><glyph
         unicode="Þ"
         horiz-adv-x="556"
         id="glyph718"><path
           d="M528.006 387.012c0,-70.6673 -24.3495,-124.355 -73.02,-161.007 -43.3131,-32.6833 -101.31,-49.0107 -173.989,-49.0107l-97.9931 0 0 -176.994 -100.006 0 0 697.999 100.006 0 0 -101.99c109.332,0 186.32,-8.67396 230.994,-26.0219 75.9964,-29.3101 114.009,-90.3112 114.009,-182.975zm-106.015 0.99212c0,38.6643 -16.6676,68.9948 -50.0028,90.9916 -28.6581,19.3322 -63.3256,28.9982 -103.974,28.9982l-85.0105 0 0 -242.984 98.9852 0c40.0249,0 72.6799,10.318 98.0214,30.9825 27.9778,22.677 41.9808,53.3477 41.9808,92.012z"
           id="path716" /></glyph><glyph
         unicode="Ý"
         horiz-adv-x="666"
         id="glyph722"><path
           d="M655.99 697.999l-271.983 -406.004 0 -291.995 -100.006 0 0 291.995 -273.003 406.004 116.843 0 207.835 -312.489 203.328 312.489 116.985 0zm-189.977 194.994l-131.016 -143.999 -66.9823 0 88.979 143.999 109.02 0z"
           id="path720" /></glyph><glyph
         unicode="Ü"
         horiz-adv-x="722"
         id="glyph726"><path
           d="M632.009 288.99c0,-92.664 -21.6849,-165.004 -64.998,-216.991 -46.6863,-56.0122 -115.341,-83.99 -206.021,-83.99 -90.6514,0 -159.334,27.9778 -205.992,83.99 -43.3415,51.9871 -64.998,124.327 -64.998,216.991l0 409.008 100.006 0 0 -395.998c0,-150.66 57.0044,-226.005 170.985,-226.005 114.009,0 171.013,75.3444 171.013,226.005l0 395.998 100.006 0 0 -409.008zm-142.015 467.005l-93.9963 0 0 100.006 93.9963 0 0 -100.006zm-163.983 0l-94.0246 0 0 100.006 94.0246 0 0 -100.006z"
           id="path724" /></glyph><glyph
         unicode="Û"
         horiz-adv-x="722"
         id="glyph730"><path
           d="M632.009 288.99c0,-92.664 -21.6849,-165.004 -64.998,-216.991 -46.6863,-56.0122 -115.341,-83.99 -206.021,-83.99 -90.6514,0 -159.334,27.9778 -205.992,83.99 -43.3415,51.9871 -64.998,124.327 -64.998,216.991l0 409.008 100.006 0 0 -395.998c0,-150.66 57.0044,-226.005 170.985,-226.005 114.009,0 171.013,75.3444 171.013,226.005l0 395.998 100.006 0 0 -409.008zm-125.999 460.003l-80.3334 0 -65.6783 97.9931 -64.8279 -97.9931 -79.1712 0 99.0135 143.999 90.9916 0 100.006 -143.999z"
           id="path728" /></glyph><glyph
         unicode="Ú"
         horiz-adv-x="722"
         id="glyph734"><path
           d="M632.009 288.99c0,-92.664 -21.6849,-165.004 -64.998,-216.991 -46.6863,-56.0122 -115.341,-83.99 -206.021,-83.99 -90.6514,0 -159.334,27.9778 -205.992,83.99 -43.3415,51.9871 -64.998,124.327 -64.998,216.991l0 409.008 100.006 0 0 -395.998c0,-150.66 57.0044,-226.005 170.985,-226.005 114.009,0 171.013,75.3444 171.013,226.005l0 395.998 100.006 0 0 -409.008zm-139.01 604.002l-130.988 -143.999 -67.0106 0 89.0073 143.999 108.991 0z"
           id="path732" /></glyph><glyph
         unicode="Ù"
         horiz-adv-x="722"
         id="glyph738"><path
           d="M632.009 288.99c0,-92.664 -21.6849,-165.004 -64.998,-216.991 -46.6863,-56.0122 -115.341,-83.99 -206.021,-83.99 -90.6514,0 -159.334,27.9778 -205.992,83.99 -43.3415,51.9871 -64.998,124.327 -64.998,216.991l0 409.008 100.006 0 0 -395.998c0,-150.66 57.0044,-226.005 170.985,-226.005 114.009,0 171.013,75.3444 171.013,226.005l0 395.998 100.006 0 0 -409.008zm-204.83 460.003l-67.0106 0 -130.988 143.999 108.991 0 89.0073 -143.999z"
           id="path736" /></glyph><glyph
         unicode="Ø"
         horiz-adv-x="777"
         id="glyph742"><path
           d="M725.013 348.999c0,-106.667 -29.0266,-192.67 -87.0231,-258.008 -60.661,-68.6547 -143.659,-102.982 -248.994,-102.982 -80.6735,0 -148.336,20.3243 -202.988,61.0012l-53.9997 -70.0153 -38.0124 25.9935 57.0044 74.0121c-65.3382,65.3382 -97.9931,155.338 -97.9931,269.998 0,105.335 29.3384,190.997 87.9868,256.987 61.3413,69.335 143.829,104.002 247.832,104.002 77.3286,0 144.679,-20.6644 201.996,-61.8232l53.1776 68.8248 35.9998 -27.9778 -53.9997 -71.0074c65.9901,-67.3508 99.0135,-157.01 99.0135,-269.006zm-106.015 0.340155c0,74.8342 -18.8219,137.508 -56.6642,188.163l-316.826 -411.163c37.5021,-33.5053 85.1522,-50.343 143.149,-50.343 74.8342,0 132.831,27.666 174.358,83.168 37.332,49.3225 55.9839,112.676 55.9839,190.175zm-86.9947 222.66c-38.6643,33.3352 -86.3428,50.0028 -143.007,50.0028 -73.3318,0 -130.988,-28.0061 -172.997,-83.99 -38.0124,-50.0028 -57.0044,-113.017 -57.0044,-189.013 0,-76.6767 18.34,-139.662 54.9918,-189.013l318.017 412.013z"
           id="path740" /></glyph><glyph
         unicode="×"
         horiz-adv-x="499"
         id="glyph746"><path
           d="M63.0138 0l0 935.002 374.993 0 0 -935.002 -374.993 0zm61.9933 63.0138l249.986 0 0 809.995 -249.986 0 0 -809.995z"
           id="path744" /></glyph><glyph
         unicode="Ö"
         horiz-adv-x="777"
         id="glyph750"><path
           d="M725.013 348.999c0,-106.667 -29.0266,-192.67 -87.0231,-258.008 -60.661,-68.6547 -143.659,-102.982 -248.994,-102.982 -105.335,0 -188.333,34.3273 -248.994,102.982 -57.9965,65.3382 -86.9947,151.341 -86.9947,258.008 0,105.335 29.3384,190.997 87.9868,256.987 61.3413,69.335 143.999,104.002 248.002,104.002 104.002,0 186.66,-34.6675 248.002,-104.002 58.6768,-65.9901 88.0152,-151.653 88.0152,-256.987zm-106.015 0c0,75.9964 -18.992,139.01 -57.0044,189.013 -41.9808,55.9839 -99.6655,83.99 -172.997,83.99 -73.3318,0 -130.988,-28.0061 -172.997,-83.99 -38.0124,-50.0028 -57.0044,-113.017 -57.0044,-189.013 0,-77.3286 18.6802,-140.654 56.0122,-190.005 41.3289,-55.3319 99.3254,-82.9979 173.989,-82.9979 74.6641,0 132.661,27.666 174.018,82.9979 37.332,49.3509 55.9839,112.676 55.9839,190.005zm-100.998 406.996l-93.9963 0 0 100.006 93.9963 0 0 -100.006zm-164.012 0l-93.9963 0 0 100.006 93.9963 0 0 -100.006z"
           id="path748" /></glyph><glyph
         unicode="Õ"
         horiz-adv-x="777"
         id="glyph754"><path
           d="M725.013 348.999c0,-106.667 -29.0266,-192.67 -87.0231,-258.008 -60.661,-68.6547 -143.659,-102.982 -248.994,-102.982 -105.335,0 -188.333,34.3273 -248.994,102.982 -57.9965,65.3382 -86.9947,151.341 -86.9947,258.008 0,105.335 29.3384,190.997 87.9868,256.987 61.3413,69.335 143.999,104.002 248.002,104.002 104.002,0 186.66,-34.6675 248.002,-104.002 58.6768,-65.9901 88.0152,-151.653 88.0152,-256.987zm-106.015 0c0,75.9964 -18.992,139.01 -57.0044,189.013 -41.9808,55.9839 -99.6655,83.99 -172.997,83.99 -73.3318,0 -130.988,-28.0061 -172.997,-83.99 -38.0124,-50.0028 -57.0044,-113.017 -57.0044,-189.013 0,-77.3286 18.6802,-140.654 56.0122,-190.005 41.3289,-55.3319 99.3254,-82.9979 173.989,-82.9979 74.6641,0 132.661,27.666 174.018,82.9979 37.332,49.3509 55.9839,112.676 55.9839,190.005zm-60.0091 517.008c-9.97789,-74.6641 -41.3289,-111.996 -93.9963,-111.996 -17.9999,0 -44.3336,7.6535 -79.0011,22.9888 -34.6675,15.3353 -59.6689,22.9888 -75.0043,22.9888 -26.6455,0 -41.9808,-15.3353 -45.9777,-45.9777l-46.006 0c10.0062,74.6641 41.3289,111.996 93.9963,111.996 17.9999,0 44.3336,-7.68184 79.0011,-23.0172 34.6675,-15.3353 59.6689,-22.9888 75.0043,-22.9888 26.6738,0 42.0092,15.3353 46.006,46.006l45.9777 0z"
           id="path752" /></glyph><glyph
         unicode="Ô"
         horiz-adv-x="777"
         id="glyph758"><path
           d="M725.013 348.999c0,-106.667 -29.0266,-192.67 -87.0231,-258.008 -60.661,-68.6547 -143.659,-102.982 -248.994,-102.982 -105.335,0 -188.333,34.3273 -248.994,102.982 -57.9965,65.3382 -86.9947,151.341 -86.9947,258.008 0,105.335 29.3384,190.997 87.9868,256.987 61.3413,69.335 143.999,104.002 248.002,104.002 104.002,0 186.66,-34.6675 248.002,-104.002 58.6768,-65.9901 88.0152,-151.653 88.0152,-256.987zm-106.015 0c0,75.9964 -18.992,139.01 -57.0044,189.013 -41.9808,55.9839 -99.6655,83.99 -172.997,83.99 -73.3318,0 -130.988,-28.0061 -172.997,-83.99 -38.0124,-50.0028 -57.0044,-113.017 -57.0044,-189.013 0,-77.3286 18.6802,-140.654 56.0122,-190.005 41.3289,-55.3319 99.3254,-82.9979 173.989,-82.9979 74.6641,0 132.661,27.666 174.018,82.9979 37.332,49.3509 55.9839,112.676 55.9839,190.005zm-85.0105 399.994l-80.3334 0 -65.65 97.9931 -64.8279 -97.9931 -79.1712 0 98.9852 143.999 91.0199 0 99.9773 -143.999z"
           id="path756" /></glyph><glyph
         unicode="Ó"
         horiz-adv-x="777"
         id="glyph762"><path
           d="M725.013 348.999c0,-106.667 -29.0266,-192.67 -87.0231,-258.008 -60.661,-68.6547 -143.659,-102.982 -248.994,-102.982 -105.335,0 -188.333,34.3273 -248.994,102.982 -57.9965,65.3382 -86.9947,151.341 -86.9947,258.008 0,105.335 29.3384,190.997 87.9868,256.987 61.3413,69.335 143.999,104.002 248.002,104.002 104.002,0 186.66,-34.6675 248.002,-104.002 58.6768,-65.9901 88.0152,-151.653 88.0152,-256.987zm-106.015 0c0,75.9964 -18.992,139.01 -57.0044,189.013 -41.9808,55.9839 -99.6655,83.99 -172.997,83.99 -73.3318,0 -130.988,-28.0061 -172.997,-83.99 -38.0124,-50.0028 -57.0044,-113.017 -57.0044,-189.013 0,-77.3286 18.6802,-140.654 56.0122,-190.005 41.3289,-55.3319 99.3254,-82.9979 173.989,-82.9979 74.6641,0 132.661,27.666 174.018,82.9979 37.332,49.3509 55.9839,112.676 55.9839,190.005zm-97.9931 543.993l-131.016 -143.999 -66.9823 0 89.0073 143.999 108.991 0z"
           id="path760" /></glyph><glyph
         unicode="Ò"
         horiz-adv-x="777"
         id="glyph766"><path
           d="M725.013 348.999c0,-106.667 -29.0266,-192.67 -87.0231,-258.008 -60.661,-68.6547 -143.659,-102.982 -248.994,-102.982 -105.335,0 -188.333,34.3273 -248.994,102.982 -57.9965,65.3382 -86.9947,151.341 -86.9947,258.008 0,105.335 29.3384,190.997 87.9868,256.987 61.3413,69.335 143.999,104.002 248.002,104.002 104.002,0 186.66,-34.6675 248.002,-104.002 58.6768,-65.9901 88.0152,-151.653 88.0152,-256.987zm-106.015 0c0,75.9964 -18.992,139.01 -57.0044,189.013 -41.9808,55.9839 -99.6655,83.99 -172.997,83.99 -73.3318,0 -130.988,-28.0061 -172.997,-83.99 -38.0124,-50.0028 -57.0044,-113.017 -57.0044,-189.013 0,-77.3286 18.6802,-140.654 56.0122,-190.005 41.3289,-55.3319 99.3254,-82.9979 173.989,-82.9979 74.6641,0 132.661,27.666 174.018,82.9979 37.332,49.3509 55.9839,112.676 55.9839,190.005zm-163.841 399.994l-66.9823 0 -131.016 143.999 109.02 0 88.979 -143.999z"
           id="path764" /></glyph><glyph
         unicode="Ñ"
         horiz-adv-x="722"
         id="glyph770"><path
           d="M633.993 0l-125.829 0 -318.329 575.004 -1.84251 -0.99212 0 -574.012 -100.006 0 0 697.999 136.005 0 309.995 -561.993 0 0 0 561.993 100.006 0 0 -697.999zm-102.982 866.007c-10.0062,-74.6641 -41.3572,-111.996 -94.0246,-111.996 -17.9999,0 -44.3336,7.6535 -78.9727,22.9888 -34.6675,15.3353 -59.6689,22.9888 -75.0043,22.9888 -26.6738,0 -42.0092,-15.3353 -46.006,-45.9777l-46.006 0c10.0062,74.6641 41.3289,111.996 93.9963,111.996 17.9999,0 44.3336,-7.68184 79.0011,-23.0172 34.6675,-15.3353 59.6689,-22.9888 75.0043,-22.9888 26.6738,0 42.0092,15.3353 46.006,46.006l46.006 0z"
           id="path768" /></glyph><glyph
         unicode="Ð"
         horiz-adv-x="722"
         id="glyph774"><path
           d="M661.177 355.009c0,-116.021 -33.3352,-204.688 -100.006,-266.001 -64.0059,-59.3288 -154.657,-89.0073 -272.011,-89.0073l-205.992 0 0 341.998 -68.0027 0 0 64.0059 68.0027 0 0 291.995 205.992 0c106.667,0 194.342,-30.3305 262.997,-90.9916 72.6799,-63.3539 109.02,-147.344 109.02,-251.998zm-106.015 -3.99683c0,76.6483 -23.8392,138.982 -71.4893,187 -47.6784,47.9902 -109.502,71.9995 -185.498,71.9995l-115.001 0 0 -204.008 183.004 0 0 -64.0059 -183.004 0 0 -254.011 104.995 0c177.986,0 266.994,87.675 266.994,263.025z"
           id="path772" /></glyph><glyph
         unicode="ï"
         horiz-adv-x="277"
         id="glyph778"><path
           d="M186.008 0l-93.9963 0 0 510.006 93.9963 0 0 -510.006zm82.0058 587.987l-94.0246 0 0 100.006 94.0246 0 0 -100.006zm-164.012 0l-93.9963 0 0 100.006 93.9963 0 0 -100.006z"
           id="path776" /></glyph><glyph
         unicode="î"
         horiz-adv-x="277"
         id="glyph782"><path
           d="M186.008 0l-93.9963 0 0 510.006 93.9963 0 0 -510.006zm97.9931 581.014l-80.3334 0 -65.6783 97.9931 -64.8279 -97.9931 -79.1712 0 99.0135 143.999 90.9916 0 100.006 -143.999z"
           id="path780" /></glyph><glyph
         unicode="í"
         horiz-adv-x="277"
         id="glyph786"><path
           d="M186.008 0l-93.9963 0 0 510.006 93.9963 0 0 -510.006zm84.9821 725.013l-130.988 -143.999 -67.0106 0 89.0073 143.999 108.991 0z"
           id="path784" /></glyph><glyph
         unicode="ì"
         horiz-adv-x="277"
         id="glyph790"><path
           d="M186.008 0l-93.9963 0 0 510.006 93.9963 0 0 -510.006zm19.1621 581.014l-67.0106 0 -130.988 143.999 108.991 0 89.0073 -143.999z"
           id="path788" /></glyph><glyph
         unicode="ë"
         horiz-adv-x="556"
         id="glyph794"><path
           d="M510.006 233.999l-363.995 0c0,-47.9902 16.1574,-88.327 48.5005,-121.01 32.3148,-32.6549 72.1413,-48.9824 119.48,-48.9824 24.0093,0 51.6753,4.98894 82.9979,14.9952 31.351,10.0062 56.0122,21.9967 74.0121,35.9998l0 -93.9963c-58.6768,-21.9967 -112.336,-32.9951 -161.007,-32.9951 -86.6546,0 -152.673,24.6613 -197.999,73.9838 -43.9934,47.3383 -65.9901,114.661 -65.9901,201.996 0,74.6641 21.0046,135.665 62.9854,183.004 44.0218,50.0028 102.67,75.0043 176.002,75.0043 150.009,0 225.013,-96.0088 225.013,-287.998zm-100.006 70.0153c0,39.9966 -11.3385,73.6436 -33.9872,100.998 -22.677,27.3258 -53.6879,40.9887 -93.0041,40.9887 -39.9966,0 -72.3397,-14.0031 -97.001,-42.0092 -22.677,-25.3132 -35.9998,-58.6484 -39.9966,-99.9773l263.989 0zm-3.00471 283.973l-93.9963 0 0 100.006 93.9963 0 0 -100.006zm-163.983 0l-94.0246 0 0 100.006 94.0246 0 0 -100.006z"
           id="path792" /></glyph><glyph
         unicode="ê"
         horiz-adv-x="556"
         id="glyph798"><path
           d="M510.006 233.999l-363.995 0c0,-47.9902 16.1574,-88.327 48.5005,-121.01 32.3148,-32.6549 72.1413,-48.9824 119.48,-48.9824 24.0093,0 51.6753,4.98894 82.9979,14.9952 31.351,10.0062 56.0122,21.9967 74.0121,35.9998l0 -93.9963c-58.6768,-21.9967 -112.336,-32.9951 -161.007,-32.9951 -86.6546,0 -152.673,24.6613 -197.999,73.9838 -43.9934,47.3383 -65.9901,114.661 -65.9901,201.996 0,74.6641 21.0046,135.665 62.9854,183.004 44.0218,50.0028 102.67,75.0043 176.002,75.0043 150.009,0 225.013,-96.0088 225.013,-287.998zm-100.006 70.0153c0,39.9966 -11.3385,73.6436 -33.9872,100.998 -22.677,27.3258 -53.6879,40.9887 -93.0041,40.9887 -39.9966,0 -72.3397,-14.0031 -97.001,-42.0092 -22.677,-25.3132 -35.9998,-58.6484 -39.9966,-99.9773l263.989 0zm13.0109 277l-80.3334 0 -65.6783 97.9931 -64.8279 -97.9931 -79.1712 0 98.9852 143.999 91.0199 0 100.006 -143.999z"
           id="path796" /></glyph><glyph
         unicode="é"
         horiz-adv-x="556"
         id="glyph802"><path
           d="M510.006 233.999l-363.995 0c0,-47.9902 16.1574,-88.327 48.5005,-121.01 32.3148,-32.6549 72.1413,-48.9824 119.48,-48.9824 24.0093,0 51.6753,4.98894 82.9979,14.9952 31.351,10.0062 56.0122,21.9967 74.0121,35.9998l0 -93.9963c-58.6768,-21.9967 -112.336,-32.9951 -161.007,-32.9951 -86.6546,0 -152.673,24.6613 -197.999,73.9838 -43.9934,47.3383 -65.9901,114.661 -65.9901,201.996 0,74.6641 21.0046,135.665 62.9854,183.004 44.0218,50.0028 102.67,75.0043 176.002,75.0043 150.009,0 225.013,-96.0088 225.013,-287.998zm-100.006 70.0153c0,39.9966 -11.3385,73.6436 -33.9872,100.998 -22.677,27.3258 -53.6879,40.9887 -93.0041,40.9887 -39.9966,0 -72.3397,-14.0031 -97.001,-42.0092 -22.677,-25.3132 -35.9998,-58.6484 -39.9966,-99.9773l263.989 0zm0 420.999l-130.988 -143.999 -67.0106 0 89.0073 143.999 108.991 0z"
           id="path800" /></glyph><glyph
         unicode="è"
         horiz-adv-x="556"
         id="glyph806"><path
           d="M510.006 233.999l-363.995 0c0,-47.9902 16.1574,-88.327 48.5005,-121.01 32.3148,-32.6549 72.1413,-48.9824 119.48,-48.9824 24.0093,0 51.6753,4.98894 82.9979,14.9952 31.351,10.0062 56.0122,21.9967 74.0121,35.9998l0 -93.9963c-58.6768,-21.9967 -112.336,-32.9951 -161.007,-32.9951 -86.6546,0 -152.673,24.6613 -197.999,73.9838 -43.9934,47.3383 -65.9901,114.661 -65.9901,201.996 0,74.6641 21.0046,135.665 62.9854,183.004 44.0218,50.0028 102.67,75.0043 176.002,75.0043 150.009,0 225.013,-96.0088 225.013,-287.998zm-100.006 70.0153c0,39.9966 -11.3385,73.6436 -33.9872,100.998 -22.677,27.3258 -53.6879,40.9887 -93.0041,40.9887 -39.9966,0 -72.3397,-14.0031 -97.001,-42.0092 -22.677,-25.3132 -35.9998,-58.6484 -39.9966,-99.9773l263.989 0zm-65.8201 277l-67.0106 0 -131.016 143.999 109.02 0 89.0073 -143.999z"
           id="path804" /></glyph><glyph
         unicode="ç"
         horiz-adv-x="443"
         id="glyph810"><path
           d="M416.01 9.01412c-30.6707,-14.0031 -70.0153,-21.0046 -118.006,-21.0046 -75.3444,0 -137.508,25.6534 -186.519,76.9885 -48.9824,51.3351 -73.4736,114.661 -73.4736,190.005 0,78.009 23.8109,141.987 71.4893,191.989 47.6784,50.0028 110.494,75.0043 188.503,75.0043 42.6611,0 80.6735,-6.66138 114.009,-19.9841l-8.022 -78.009c-35.3195,14.655 -69.335,21.9967 -101.99,21.9967 -50.0028,0 -90.6797,-19.6723 -122.002,-58.9886 -28.0061,-36.6801 -42.0092,-80.6735 -42.0092,-132.009 0,-54.68 14.3432,-99.6655 43.0013,-135.013 31.351,-37.332 73.672,-55.9839 127.02,-55.9839 37.332,0 70.9791,9.66608 100.998,28.9982l7.00153 -83.99zm-44.0218 -139.01c0,-32.0029 -14.655,-56.0122 -43.9934,-71.9995 -23.981,-13.3511 -53.0075,-20.0125 -86.9947,-20.0125 -30.6707,0 -58.6768,7.00153 -83.99,21.0046l17.9999 34.0155c23.981,-10.0062 45.6659,-15.0235 64.998,-15.0235 37.332,0 55.9839,15.3353 55.9839,46.006 0,25.9935 -15.3353,39.0045 -45.9777,39.0045 -12.6708,0 -26.3337,-2.66455 -41.0171,-7.99365l-17.0078 18.992 64.0059 86.0026 46.9981 0 -46.006 -60.0091 2.01259 -1.98424c9.32593,3.31651 19.3322,4.98894 29.9904,4.98894 23.329,0 43.0013,-6.4913 59.017,-19.5022 15.9873,-12.9826 23.981,-30.8408 23.981,-53.4894z"
           id="path808" /></glyph><glyph
         unicode="æ"
         horiz-adv-x="888"
         id="glyph814"><path
           d="M848.007 233.999l-361.018 0c0,-47.9902 15.8456,-88.327 47.5084,-121.01 31.6628,-32.6549 71.4893,-48.9824 119.508,-48.9824 50.0028,0 97.001,17.6597 140.994,53.0075l0 -95.0167c-50.0028,-22.677 -98.6734,-33.9872 -146.012,-33.9872 -49.3225,0 -92.664,8.64561 -129.996,25.9935 -44.6454,20.6644 -74.6641,51.6753 -89.9994,93.0041l-1.98424 0c-10.0062,-39.3446 -34.3557,-69.6752 -73.02,-91.0199 -33.3352,-18.6519 -71.9995,-27.9778 -115.993,-27.9778 -51.3351,0 -96.0088,14.0031 -133.993,41.9808 -42.0092,30.6707 -63.0138,71.0074 -63.0138,121.01 0,60.0091 27.666,104.002 82.9979,132.009 42.0092,21.3164 96.349,32.0029 163.019,32.0029 11.3385,0 28.1479,-0.850388 50.4847,-2.52282 22.3369,-1.64408 39.1746,-2.49447 50.5131,-2.49447l4.98894 0c0,90.6797 -47.9902,136.005 -143.999,136.005 -46.658,0 -93.9963,-17.3196 -141.987,-51.9871l-5.01729 78.9727c51.3351,32.6833 107.688,49.0107 169.001,49.0107 84.6703,0 143.347,-29.6502 176.002,-89.0073 33.3352,59.3571 92.3522,89.0073 176.994,89.0073 149.357,0 224.021,-96.0088 224.021,-287.998zm-100.006 70.0153c0,37.332 -11.3385,69.6468 -34.0155,96.9726 -24.6613,30.0187 -54.9918,45.0139 -90.9916,45.0139 -39.9966,0 -72.6515,-13.4928 -97.9931,-40.5068 -25.3416,-26.9857 -38.0124,-60.8311 -38.0124,-101.48l261.013 0zm-355.009 -62.0217c-10.0062,0 -25.0014,0.510233 -44.9855,1.50235 -20.0125,0.99212 -35.0077,1.50235 -45.0139,1.50235 -107.999,0 -161.999,-32.3431 -161.999,-97.001 0,-26.6738 10.3464,-47.6501 31.0108,-62.9854 18.6519,-14.0031 41.669,-21.0046 68.9948,-21.0046 46.006,0 83.3381,18.6519 111.996,55.9839 26.6738,34.0155 39.9966,74.6641 39.9966,122.002z"
           id="path812" /></glyph><glyph
         unicode="å"
         horiz-adv-x="556"
         id="glyph818"><path
           d="M481.178 0l-88.0152 0 0 65.9901 0 0c-36.8218,-51.9871 -89.8294,-77.9806 -158.824,-77.9806 -125.517,0 -188.163,52.6674 -188.163,158.002 0,56.976 26.6455,100.317 79.9932,130.166 43.3415,24.4912 95.6687,36.8218 157.01,36.8218 41.9808,0 75.3161,0 99.9773,0 0,46.006 -9.66608,79.653 -28.9982,100.998 -19.3322,21.3447 -51.6469,32.0029 -97.001,32.0029 -57.3162,0 -106.667,-17.3196 -147.996,-51.9871l-4.98894 79.9932c53.3193,32.0029 109.332,47.9902 167.98,47.9902 71.3476,0 123.335,-17.3196 156.018,-51.9871 32.6549,-34.6675 48.9824,-87.675 48.9824,-159.023l0 -210.981c0,-46.6863 1.36062,-79.9932 4.02517,-100.006zm-98.0214 197.999l0 45.0139c-6.66138,0 -16.6676,0.311809 -29.9904,0.99212 -13.3228,0.651964 -23.329,0.99212 -29.9904,0.99212 -118.006,0 -177.023,-32.6549 -177.023,-97.9931 0,-24.0093 9.66608,-43.8233 29.0266,-59.4988 19.3322,-15.6755 41.3289,-23.4991 65.9901,-23.4991 42.6611,0 76.9885,11.8204 103.01,35.4895 25.9935,23.6691 38.9761,56.4941 38.9761,98.5033zm-3.14644 467.005c0,-27.3258 -10.1763,-51.165 -30.5006,-71.5177 -20.3526,-20.3243 -44.1635,-30.4722 -71.5177,-30.4722 -27.3258,0 -51.165,10.148 -71.4893,30.4722 -20.3243,20.3526 -30.5006,44.1918 -30.5006,71.5177 0,28.0061 10.0062,51.9871 29.9904,71.9995 20.0125,19.9841 44.0218,29.9904 71.9995,29.9904 27.3542,0 51.165,-10.148 71.5177,-30.5006 20.3243,-20.3243 30.5006,-44.1635 30.5006,-71.4893zm-39.9966 0c0,16.6676 -6.17949,31.1526 -18.5101,43.4832 -12.3306,12.359 -26.8439,18.5101 -43.5115,18.5101 -16.6676,0 -31.1526,-6.15114 -43.4832,-18.5101 -12.3306,-12.3306 -18.5101,-26.8156 -18.5101,-43.4832 0,-16.6676 6.17949,-31.1809 18.5101,-43.5115 12.3306,-12.3306 26.8156,-18.4818 43.4832,-18.4818 16.0156,0 30.3305,6.32122 43.0013,18.992 12.6708,12.6708 19.0204,26.9857 19.0204,43.0013z"
           id="path816" /></glyph><glyph
         unicode="ä"
         horiz-adv-x="556"
         id="glyph822"><path
           d="M481.178 0l-88.0152 0 0 65.9901 0 0c-36.8218,-51.9871 -89.8294,-77.9806 -158.824,-77.9806 -125.517,0 -188.163,52.6674 -188.163,158.002 0,56.976 26.6455,100.317 79.9932,130.166 43.3415,24.4912 95.6687,36.8218 157.01,36.8218 41.9808,0 75.3161,0 99.9773,0 0,46.006 -9.66608,79.653 -28.9982,100.998 -19.3322,21.3447 -51.6469,32.0029 -97.001,32.0029 -57.3162,0 -106.667,-17.3196 -147.996,-51.9871l-4.98894 79.9932c53.3193,32.0029 109.332,47.9902 167.98,47.9902 71.3476,0 123.335,-17.3196 156.018,-51.9871 32.6549,-34.6675 48.9824,-87.675 48.9824,-159.023l0 -210.981c0,-46.6863 1.36062,-79.9932 4.02517,-100.006zm-98.0214 197.999l0 45.0139c-6.66138,0 -16.6676,0.311809 -29.9904,0.99212 -13.3228,0.651964 -23.329,0.99212 -29.9904,0.99212 -118.006,0 -177.023,-32.6549 -177.023,-97.9931 0,-24.0093 9.66608,-43.8233 29.0266,-59.4988 19.3322,-15.6755 41.3289,-23.4991 65.9901,-23.4991 42.6611,0 76.9885,11.8204 103.01,35.4895 25.9935,23.6691 38.9761,56.4941 38.9761,98.5033zm23.8392 389.988l-93.9963 0 0 100.006 93.9963 0 0 -100.006zm-163.983 0l-94.0246 0 0 100.006 94.0246 0 0 -100.006z"
           id="path820" /></glyph><glyph
         unicode="ã"
         horiz-adv-x="556"
         id="glyph826"><path
           d="M481.178 0l-88.0152 0 0 65.9901 0 0c-36.8218,-51.9871 -89.8294,-77.9806 -158.824,-77.9806 -125.517,0 -188.163,52.6674 -188.163,158.002 0,56.976 26.6455,100.317 79.9932,130.166 43.3415,24.4912 95.6687,36.8218 157.01,36.8218 41.9808,0 75.3161,0 99.9773,0 0,46.006 -9.66608,79.653 -28.9982,100.998 -19.3322,21.3447 -51.6469,32.0029 -97.001,32.0029 -57.3162,0 -106.667,-17.3196 -147.996,-51.9871l-4.98894 79.9932c53.3193,32.0029 109.332,47.9902 167.98,47.9902 71.3476,0 123.335,-17.3196 156.018,-51.9871 32.6549,-34.6675 48.9824,-87.675 48.9824,-159.023l0 -210.981c0,-46.6863 1.36062,-79.9932 4.02517,-100.006zm-98.0214 197.999l0 45.0139c-6.66138,0 -16.6676,0.311809 -29.9904,0.99212 -13.3228,0.651964 -23.329,0.99212 -29.9904,0.99212 -118.006,0 -177.023,-32.6549 -177.023,-97.9931 0,-24.0093 9.66608,-43.8233 29.0266,-59.4988 19.3322,-15.6755 41.3289,-23.4991 65.9901,-23.4991 42.6611,0 76.9885,11.8204 103.01,35.4895 25.9935,23.6691 38.9761,56.4941 38.9761,98.5033zm64.8563 500c-10.0062,-74.6641 -41.3572,-111.996 -94.0246,-111.996 -17.9999,0 -44.3336,7.6535 -79.0011,22.9888 -34.6675,15.3353 -59.6406,23.0172 -74.9759,23.0172 -26.6738,0 -42.0092,-15.3353 -46.006,-46.006l-46.006 0c10.0062,74.6641 41.3289,111.996 93.9963,111.996 17.9999,0 44.3336,-7.6535 79.0011,-22.9888 34.6675,-15.3353 59.6689,-23.0172 75.0043,-23.0172 26.6738,0 42.0092,15.3353 46.006,46.006l46.006 0z"
           id="path824" /></glyph><glyph
         unicode="â"
         horiz-adv-x="556"
         id="glyph830"><path
           d="M481.178 0l-88.0152 0 0 65.9901 0 0c-36.8218,-51.9871 -89.8294,-77.9806 -158.824,-77.9806 -125.517,0 -188.163,52.6674 -188.163,158.002 0,56.976 26.6455,100.317 79.9932,130.166 43.3415,24.4912 95.6687,36.8218 157.01,36.8218 41.9808,0 75.3161,0 99.9773,0 0,46.006 -9.66608,79.653 -28.9982,100.998 -19.3322,21.3447 -51.6469,32.0029 -97.001,32.0029 -57.3162,0 -106.667,-17.3196 -147.996,-51.9871l-4.98894 79.9932c53.3193,32.0029 109.332,47.9902 167.98,47.9902 71.3476,0 123.335,-17.3196 156.018,-51.9871 32.6549,-34.6675 48.9824,-87.675 48.9824,-159.023l0 -210.981c0,-46.6863 1.36062,-79.9932 4.02517,-100.006zm-98.0214 197.999l0 45.0139c-6.66138,0 -16.6676,0.311809 -29.9904,0.99212 -13.3228,0.651964 -23.329,0.99212 -29.9904,0.99212 -118.006,0 -177.023,-32.6549 -177.023,-97.9931 0,-24.0093 9.66608,-43.8233 29.0266,-59.4988 19.3322,-15.6755 41.3289,-23.4991 65.9901,-23.4991 42.6611,0 76.9885,11.8204 103.01,35.4895 25.9935,23.6691 38.9761,56.4941 38.9761,98.5033zm39.8549 383.015l-80.3334 0 -65.6783 97.9931 -64.8279 -97.9931 -79.1712 0 98.9852 143.999 91.0199 0 100.006 -143.999z"
           id="path828" /></glyph><glyph
         unicode="á"
         horiz-adv-x="556"
         id="glyph834"><path
           d="M481.178 0l-88.0152 0 0 65.9901 0 0c-36.8218,-51.9871 -89.8294,-77.9806 -158.824,-77.9806 -125.517,0 -188.163,52.6674 -188.163,158.002 0,56.976 26.6455,100.317 79.9932,130.166 43.3415,24.4912 95.6687,36.8218 157.01,36.8218 41.9808,0 75.3161,0 99.9773,0 0,46.006 -9.66608,79.653 -28.9982,100.998 -19.3322,21.3447 -51.6469,32.0029 -97.001,32.0029 -57.3162,0 -106.667,-17.3196 -147.996,-51.9871l-4.98894 79.9932c53.3193,32.0029 109.332,47.9902 167.98,47.9902 71.3476,0 123.335,-17.3196 156.018,-51.9871 32.6549,-34.6675 48.9824,-87.675 48.9824,-159.023l0 -210.981c0,-46.6863 1.36062,-79.9932 4.02517,-100.006zm-98.0214 197.999l0 45.0139c-6.66138,0 -16.6676,0.311809 -29.9904,0.99212 -13.3228,0.651964 -23.329,0.99212 -29.9904,0.99212 -118.006,0 -177.023,-32.6549 -177.023,-97.9931 0,-24.0093 9.66608,-43.8233 29.0266,-59.4988 19.3322,-15.6755 41.3289,-23.4991 65.9901,-23.4991 42.6611,0 76.9885,11.8204 103.01,35.4895 25.9935,23.6691 38.9761,56.4941 38.9761,98.5033zm26.8439 527.014l-130.988 -143.999 -67.0106 0 89.0073 143.999 108.991 0z"
           id="path832" /></glyph><glyph
         unicode="à"
         horiz-adv-x="556"
         id="glyph838"><path
           d="M481.178 0l-88.0152 0 0 65.9901 0 0c-36.8218,-51.9871 -89.8294,-77.9806 -158.824,-77.9806 -125.517,0 -188.163,52.6674 -188.163,158.002 0,56.976 26.6455,100.317 79.9932,130.166 43.3415,24.4912 95.6687,36.8218 157.01,36.8218 41.9808,0 75.3161,0 99.9773,0 0,46.006 -9.66608,79.653 -28.9982,100.998 -19.3322,21.3447 -51.6469,32.0029 -97.001,32.0029 -57.3162,0 -106.667,-17.3196 -147.996,-51.9871l-4.98894 79.9932c53.3193,32.0029 109.332,47.9902 167.98,47.9902 71.3476,0 123.335,-17.3196 156.018,-51.9871 32.6549,-34.6675 48.9824,-87.675 48.9824,-159.023l0 -210.981c0,-46.6863 1.36062,-79.9932 4.02517,-100.006zm-98.0214 197.999l0 45.0139c-6.66138,0 -16.6676,0.311809 -29.9904,0.99212 -13.3228,0.651964 -23.329,0.99212 -29.9904,0.99212 -118.006,0 -177.023,-32.6549 -177.023,-97.9931 0,-24.0093 9.66608,-43.8233 29.0266,-59.4988 19.3322,-15.6755 41.3289,-23.4991 65.9901,-23.4991 42.6611,0 76.9885,11.8204 103.01,35.4895 25.9935,23.6691 38.9761,56.4941 38.9761,98.5033zm-38.9761 383.015l-67.0106 0 -131.016 143.999 109.02 0 89.0073 -143.999z"
           id="path836" /></glyph><glyph
         unicode="ÿ"
         horiz-adv-x="499"
         id="glyph842"><path
           d="M484.154 510.006l-187.993 -521.005c-24.6613,-68.6547 -46.3178,-115.993 -64.998,-142.015 -32.6549,-45.9777 -76.3365,-68.9948 -130.988,-68.9948 -17.3479,0 -38.6643,2.35274 -64.0059,7.00153l6.00941 77.0168c15.9873,-5.35745 30.6423,-8.022 43.9934,-8.022 45.3257,0 79.653,30.3589 102.982,91.0199 6.00941,15.9873 9.01412,27.666 9.01412,34.9793 0,2.6929 -6.00941,20.6928 -17.9999,53.9997l-172.997 476.019 102.84 0 136.657 -422.019 1.98424 0.170078 140.513 421.849 94.9884 0zm-105.165 77.9806l-93.9963 0 0 100.006 93.9963 0 0 -100.006zm-163.983 0l-93.9963 0 0 100.006 93.9963 0 0 -100.006z"
           id="path840" /></glyph><glyph
         unicode="þ"
         horiz-adv-x="611"
         id="glyph846"><path
           d="M564.998 263.989c0,-75.9964 -17.1778,-138.982 -51.3351,-188.985 -39.4864,-57.9965 -95.8388,-86.9947 -168.83,-86.9947 -80.3334,0 -137.338,27.3258 -170.843,81.9774l0 0 0 -279.976 -93.9963 0 0 960.003 93.9963 0 0 -310.023 0 0c33.5053,54.68 90.1695,82.0058 169.851,82.0058 71.6594,0 127.331,-25.9935 166.818,-78.009 36.1699,-46.658 54.3398,-106.667 54.3398,-179.999zm-100.006 -7.00153c0,51.3351 -10.318,94.0246 -30.9825,128.012 -24.6896,40.6769 -61.0012,61.0012 -109.02,61.0012 -48.6706,0 -86.9947,-20.6644 -115.001,-61.9933 -23.981,-35.3478 -35.9998,-78.6609 -35.9998,-129.996 0,-50.0028 12.0188,-93.0041 35.9998,-129.004 28.0061,-40.6769 66.0185,-61.0012 114.009,-61.0012 45.3257,0 81.0137,21.6566 107.007,64.998 22.6487,37.332 33.9872,79.9932 33.9872,127.983z"
           id="path844" /></glyph><glyph
         unicode="ý"
         horiz-adv-x="499"
         id="glyph850"><path
           d="M63.0138 0l0 935.002 374.993 0 0 -935.002 -374.993 0zm61.9933 63.0138l249.986 0 0 809.995 -249.986 0 0 -809.995z"
           id="path848" /></glyph><glyph
         unicode="ü"
         horiz-adv-x="611"
         id="glyph854"><path
           d="M531.011 0l-91.0199 0 0 81.0137 0 0c-14.0031,-30.0187 -37.5021,-53.3477 -70.3271,-70.0153 -29.5085,-15.3353 -61.9933,-22.9888 -97.6529,-22.9888 -128.012,0 -192.018,72.9917 -192.018,219.003l0 302.993 93.9963 0 0 -264.017c0,-55.3319 5.66926,-95.9805 17.0078,-122.002 17.3479,-39.9966 49.3225,-59.9807 96.0088,-59.9807 53.9997,0 93.6561,22.6487 118.998,68.0027 20.6644,36.6517 30.9825,83.99 30.9825,141.987l0 236.011 94.0246 0 0 -510.006zm-96.0088 587.987l-93.9963 0 0 100.006 93.9963 0 0 -100.006zm-164.012 0l-93.9963 0 0 100.006 93.9963 0 0 -100.006z"
           id="path852" /></glyph><glyph
         unicode="û"
         horiz-adv-x="611"
         id="glyph858"><path
           d="M531.011 0l-91.0199 0 0 81.0137 0 0c-14.0031,-30.0187 -37.5021,-53.3477 -70.3271,-70.0153 -29.5085,-15.3353 -61.9933,-22.9888 -97.6529,-22.9888 -128.012,0 -192.018,72.9917 -192.018,219.003l0 302.993 93.9963 0 0 -264.017c0,-55.3319 5.66926,-95.9805 17.0078,-122.002 17.3479,-39.9966 49.3225,-59.9807 96.0088,-59.9807 53.9997,0 93.6561,22.6487 118.998,68.0027 20.6644,36.6517 30.9825,83.99 30.9825,141.987l0 236.011 94.0246 0 0 -510.006zm-80.0215 581.014l-80.3334 0 -65.65 97.9931 -64.8279 -97.9931 -79.1712 0 98.9852 143.999 91.0199 0 99.9773 -143.999z"
           id="path856" /></glyph><glyph
         unicode="ú"
         horiz-adv-x="611"
         id="glyph862"><path
           d="M531.011 0l-91.0199 0 0 81.0137 0 0c-14.0031,-30.0187 -37.5021,-53.3477 -70.3271,-70.0153 -29.5085,-15.3353 -61.9933,-22.9888 -97.6529,-22.9888 -128.012,0 -192.018,72.9917 -192.018,219.003l0 302.993 93.9963 0 0 -264.017c0,-55.3319 5.66926,-95.9805 17.0078,-122.002 17.3479,-39.9966 49.3225,-59.9807 96.0088,-59.9807 53.9997,0 93.6561,22.6487 118.998,68.0027 20.6644,36.6517 30.9825,83.99 30.9825,141.987l0 236.011 94.0246 0 0 -510.006zm-93.0041 725.013l-131.016 -143.999 -66.9823 0 88.979 143.999 109.02 0z"
           id="path860" /></glyph><glyph
         unicode="ù"
         horiz-adv-x="611"
         id="glyph866"><path
           d="M531.011 0l-91.0199 0 0 81.0137 0 0c-14.0031,-30.0187 -37.5021,-53.3477 -70.3271,-70.0153 -29.5085,-15.3353 -61.9933,-22.9888 -97.6529,-22.9888 -128.012,0 -192.018,72.9917 -192.018,219.003l0 302.993 93.9963 0 0 -264.017c0,-55.3319 5.66926,-95.9805 17.0078,-122.002 17.3479,-39.9966 49.3225,-59.9807 96.0088,-59.9807 53.9997,0 93.6561,22.6487 118.998,68.0027 20.6644,36.6517 30.9825,83.99 30.9825,141.987l0 236.011 94.0246 0 0 -510.006zm-158.853 581.014l-66.9823 0 -131.016 143.999 109.02 0 88.979 -143.999z"
           id="path864" /></glyph><glyph
         unicode="ø"
         horiz-adv-x="611"
         id="glyph870"><path
           d="M564.998 255.003c0,-75.3444 -24.4912,-138.67 -73.5019,-190.005 -48.9824,-51.3351 -111.004,-76.9885 -185.668,-76.9885 -59.3288,0 -111.004,16.6676 -154.997,50.1446l-56.8343 -69.1649 -29.9904 25.0014 57.0044 71.0074c-50.0028,51.3351 -75.0043,114.661 -75.0043,190.005 0,78.009 23.8392,141.987 71.4893,191.989 47.6784,50.0028 110.494,75.0043 188.333,75.0043 60.0091,0 111.004,-15.3353 153.013,-45.8359l53.1493 64.8279 30.1888 -25.1431 -53.1776 -64.8563c50.6548,-49.3225 75.9964,-114.661 75.9964,-195.986zm-161.999 152.985c-26.6738,25.3416 -58.9886,38.0124 -97.001,38.0124 -49.3225,0 -89.0073,-20.0125 -118.998,-60.0091 -27.3258,-35.9998 -40.9887,-79.653 -40.9887,-130.988 0,-46.658 10.9984,-86.6829 32.9951,-119.99l223.992 272.975zm61.9933 -152.815c0,46.658 -11.9905,87.6467 -36.1699,122.995l-224.814 -275.157c27.3258,-26.0219 61.313,-39.0045 101.99,-39.0045 50.0028,0 89.6593,19.9841 118.998,59.9807 26.6738,35.9998 39.9966,79.6814 39.9966,131.187z"
           id="path868" /></glyph><glyph
         unicode="÷"
         horiz-adv-x="600"
         id="glyph874"><path
           d="M377.005 460.003c0,-19.3322 -7.68184,-36.8502 -23.0172,-52.4973 -15.3353,-15.6755 -32.6549,-23.4991 -51.9871,-23.4991 -20.6644,0 -38.8344,7.48342 -54.5099,22.5069 -15.6471,14.9952 -23.4991,32.825 -23.4991,53.4894 0,20.6644 7.68184,38.6643 23.0172,53.9997 15.3353,15.3353 33.3352,22.9888 53.9997,22.9888 19.9841,0 37.6439,-7.82357 52.9792,-23.4991 15.3353,-15.6471 23.0172,-33.5053 23.0172,-53.4894zm176.002 -251.006l-506.009 0 0 88.0152 506.009 0 0 -88.0152zm-176.002 -162.991c0,-19.3322 -7.68184,-36.9919 -23.0172,-53.0075 -15.3353,-15.9873 -32.6549,-24.0093 -51.9871,-24.0093 -20.6644,0 -38.8344,7.68184 -54.5099,23.0172 -15.6471,15.3353 -23.4991,33.3352 -23.4991,53.9997 0,20.6644 7.68184,38.4942 23.0172,53.4894 15.3353,14.9952 33.3352,22.5069 53.9997,22.5069 19.9841,0 37.6439,-7.68184 52.9792,-22.9888 15.3353,-15.3353 23.0172,-33.0234 23.0172,-53.0075z"
           id="path872" /></glyph><glyph
         unicode="ö"
         horiz-adv-x="611"
         id="glyph878"><path
           d="M564.998 255.003c0,-75.3444 -24.4912,-138.67 -73.5019,-190.005 -48.9824,-51.3351 -110.834,-76.9885 -185.498,-76.9885 -75.3444,0 -137.508,25.6534 -186.49,76.9885 -49.0107,51.3351 -73.5019,114.661 -73.5019,190.005 0,78.009 23.8392,141.987 71.4893,191.989 47.6784,50.0028 110.494,75.0043 188.503,75.0043 77.3286,0 139.832,-25.0014 187.511,-75.0043 47.6501,-50.0028 71.4893,-113.98 71.4893,-191.989zm-100.006 0c0,50.0028 -13.6629,93.3443 -40.9887,129.996 -29.9904,40.6769 -69.335,61.0012 -118.006,61.0012 -49.3225,0 -89.0073,-20.0125 -118.998,-60.0091 -27.3258,-35.9998 -40.9887,-79.653 -40.9887,-130.988 0,-52.6674 13.3228,-96.6608 39.9966,-132.009 29.3384,-39.3163 69.335,-58.9886 119.99,-58.9886 50.0028,0 89.6593,19.9841 118.998,59.9807 26.6738,35.9998 39.9966,79.6814 39.9966,131.016zm-29.9904 332.984l-93.9963 0 0 100.006 93.9963 0 0 -100.006zm-164.012 0l-93.9963 0 0 100.006 93.9963 0 0 -100.006z"
           id="path876" /></glyph><glyph
         unicode="õ"
         horiz-adv-x="611"
         id="glyph882"><path
           d="M564.998 255.003c0,-75.3444 -24.4912,-138.67 -73.5019,-190.005 -48.9824,-51.3351 -110.834,-76.9885 -185.498,-76.9885 -75.3444,0 -137.508,25.6534 -186.49,76.9885 -49.0107,51.3351 -73.5019,114.661 -73.5019,190.005 0,78.009 23.8392,141.987 71.4893,191.989 47.6784,50.0028 110.494,75.0043 188.503,75.0043 77.3286,0 139.832,-25.0014 187.511,-75.0043 47.6501,-50.0028 71.4893,-113.98 71.4893,-191.989zm-100.006 0c0,50.0028 -13.6629,93.3443 -40.9887,129.996 -29.9904,40.6769 -69.335,61.0012 -118.006,61.0012 -49.3225,0 -89.0073,-20.0125 -118.998,-60.0091 -27.3258,-35.9998 -40.9887,-79.653 -40.9887,-130.988 0,-52.6674 13.3228,-96.6608 39.9966,-132.009 29.3384,-39.3163 69.335,-58.9886 119.99,-58.9886 50.0028,0 89.6593,19.9841 118.998,59.9807 26.6738,35.9998 39.9966,79.6814 39.9966,131.016zm10.9984 442.996c-9.97789,-74.6641 -41.3289,-111.996 -93.9963,-111.996 -17.9999,0 -44.3336,7.6535 -79.0011,22.9888 -34.6675,15.3353 -59.6689,23.0172 -75.0043,23.0172 -26.6455,0 -41.9808,-15.3353 -45.9777,-46.006l-46.006 0c10.0062,74.6641 41.3289,111.996 93.9963,111.996 17.9999,0 44.3336,-7.6535 79.0011,-22.9888 34.6675,-15.3353 59.6689,-23.0172 75.0043,-23.0172 26.6455,0 41.9808,15.3353 46.006,46.006l45.9777 0z"
           id="path880" /></glyph><glyph
         unicode="ô"
         horiz-adv-x="611"
         id="glyph886"><path
           d="M564.998 255.003c0,-75.3444 -24.4912,-138.67 -73.5019,-190.005 -48.9824,-51.3351 -110.834,-76.9885 -185.498,-76.9885 -75.3444,0 -137.508,25.6534 -186.49,76.9885 -49.0107,51.3351 -73.5019,114.661 -73.5019,190.005 0,78.009 23.8392,141.987 71.4893,191.989 47.6784,50.0028 110.494,75.0043 188.503,75.0043 77.3286,0 139.832,-25.0014 187.511,-75.0043 47.6501,-50.0028 71.4893,-113.98 71.4893,-191.989zm-100.006 0c0,50.0028 -13.6629,93.3443 -40.9887,129.996 -29.9904,40.6769 -69.335,61.0012 -118.006,61.0012 -49.3225,0 -89.0073,-20.0125 -118.998,-60.0091 -27.3258,-35.9998 -40.9887,-79.653 -40.9887,-130.988 0,-52.6674 13.3228,-96.6608 39.9966,-132.009 29.3384,-39.3163 69.335,-58.9886 119.99,-58.9886 50.0028,0 89.6593,19.9841 118.998,59.9807 26.6738,35.9998 39.9966,79.6814 39.9966,131.016zm-14.0031 326.011l-80.3334 0 -65.65 97.9931 -64.8279 -97.9931 -79.1712 0 98.9852 143.999 91.0199 0 99.9773 -143.999z"
           id="path884" /></glyph><glyph
         unicode="ó"
         horiz-adv-x="611"
         id="glyph890"><path
           d="M564.998 255.003c0,-75.3444 -24.4912,-138.67 -73.5019,-190.005 -48.9824,-51.3351 -110.834,-76.9885 -185.498,-76.9885 -75.3444,0 -137.508,25.6534 -186.49,76.9885 -49.0107,51.3351 -73.5019,114.661 -73.5019,190.005 0,78.009 23.8392,141.987 71.4893,191.989 47.6784,50.0028 110.494,75.0043 188.503,75.0043 77.3286,0 139.832,-25.0014 187.511,-75.0043 47.6501,-50.0028 71.4893,-113.98 71.4893,-191.989zm-100.006 0c0,50.0028 -13.6629,93.3443 -40.9887,129.996 -29.9904,40.6769 -69.335,61.0012 -118.006,61.0012 -49.3225,0 -89.0073,-20.0125 -118.998,-60.0091 -27.3258,-35.9998 -40.9887,-79.653 -40.9887,-130.988 0,-52.6674 13.3228,-96.6608 39.9966,-132.009 29.3384,-39.3163 69.335,-58.9886 119.99,-58.9886 50.0028,0 89.6593,19.9841 118.998,59.9807 26.6738,35.9998 39.9966,79.6814 39.9966,131.016zm-26.9857 470.01l-131.016 -143.999 -66.9823 0 88.979 143.999 109.02 0z"
           id="path888" /></glyph><glyph
         unicode="ò"
         horiz-adv-x="611"
         id="glyph894"><path
           d="M564.998 255.003c0,-75.3444 -24.4912,-138.67 -73.5019,-190.005 -48.9824,-51.3351 -110.834,-76.9885 -185.498,-76.9885 -75.3444,0 -137.508,25.6534 -186.49,76.9885 -49.0107,51.3351 -73.5019,114.661 -73.5019,190.005 0,78.009 23.8392,141.987 71.4893,191.989 47.6784,50.0028 110.494,75.0043 188.503,75.0043 77.3286,0 139.832,-25.0014 187.511,-75.0043 47.6501,-50.0028 71.4893,-113.98 71.4893,-191.989zm-100.006 0c0,50.0028 -13.6629,93.3443 -40.9887,129.996 -29.9904,40.6769 -69.335,61.0012 -118.006,61.0012 -49.3225,0 -89.0073,-20.0125 -118.998,-60.0091 -27.3258,-35.9998 -40.9887,-79.653 -40.9887,-130.988 0,-52.6674 13.3228,-96.6608 39.9966,-132.009 29.3384,-39.3163 69.335,-58.9886 119.99,-58.9886 50.0028,0 89.6593,19.9841 118.998,59.9807 26.6738,35.9998 39.9966,79.6814 39.9966,131.016zm-92.8341 326.011l-66.9823 0 -131.016 143.999 109.02 0 88.979 -143.999z"
           id="path892" /></glyph><glyph
         unicode="ñ"
         horiz-adv-x="611"
         id="glyph898"><path
           d="M531.011 0l-94.0246 0 0 263.989c0,55.3319 -5.64091,96.0088 -16.9794,122.002 -17.3479,39.9966 -49.3509,60.0091 -96.0088,60.0091 -53.9997,0 -93.6561,-22.677 -118.998,-68.0027 -20.6644,-36.6517 -31.0108,-83.99 -31.0108,-141.987l0 -236.011 -93.9963 0 0 510.006 91.0199 0 0 -81.0137 0 0c13.9747,30.0187 37.4738,53.3477 70.3271,70.0153 29.4801,15.3353 61.9933,22.9888 97.6529,22.9888 128.012,0 192.018,-72.9917 192.018,-219.003l0 -302.993zm-55.0201 697.999c-9.97789,-74.6641 -41.3289,-111.996 -93.9963,-111.996 -17.9999,0 -44.3336,7.6535 -79.0011,22.9888 -34.6675,15.3353 -59.6689,23.0172 -75.0043,23.0172 -26.6455,0 -41.9808,-15.3353 -45.9777,-46.006l-46.006 0c10.0062,74.6641 41.3289,111.996 93.9963,111.996 17.9999,0 44.3336,-7.6535 79.0011,-22.9888 34.6675,-15.3353 59.6689,-23.0172 75.0043,-23.0172 26.6455,0 41.9808,15.3353 46.006,46.006l45.9777 0z"
           id="path896" /></glyph><glyph
         unicode="ð"
         horiz-adv-x="611"
         id="glyph902"><path
           d="M564.998 255.003c0,-75.3444 -24.4912,-138.67 -73.5019,-190.005 -48.9824,-51.3351 -110.834,-76.9885 -185.498,-76.9885 -75.3444,0 -137.508,25.6534 -186.49,76.9885 -49.0107,51.3351 -73.5019,114.661 -73.5019,190.005 0,78.009 23.8392,141.987 71.4893,191.989 47.6784,50.0028 110.494,75.0043 188.503,75.0043 31.3226,0 59.3288,-7.34169 83.99,-21.9967l2.01259 0c-31.3226,42.1793 -67.8326,78.179 -109.162,108.339l-128.834 -69.335 -46.006 53.0075 110.012 59.1587c-36.6801,22.6487 -78.3491,41.8391 -125.007,57.8264l71.9995 53.0075c49.8328,-17.9999 95.4986,-39.8265 136.827,-65.6783l122.172 65.6783 46.006 -53.0075 -104.002 -55.9839c63.3256,-48.6706 112.336,-107.347 147.004,-176.002 34.6675,-68.683 51.9871,-142.667 51.9871,-222.008zm-100.006 0c0,50.0028 -13.6629,93.3443 -40.9887,129.996 -29.9904,40.6769 -69.335,61.0012 -118.006,61.0012 -49.3225,0 -89.0073,-20.0125 -118.998,-60.0091 -27.3258,-35.9998 -40.9887,-79.653 -40.9887,-130.988 0,-52.6674 13.3228,-96.6608 39.9966,-132.009 29.3384,-39.3163 69.335,-58.9886 119.99,-58.9886 50.0028,0 89.6593,19.9841 118.998,59.9807 26.6738,35.9998 39.9966,79.6814 39.9966,131.016z"
           id="path900" /></glyph></font><font
       id="FontID0"
       font-variant="normal"
       font-style="normal"
       font-weight="400"
       horiz-origin-x="0"
       horiz-origin-y="0"
       horiz-adv-x="90"
       vert-origin-x="45"
       vert-origin-y="90"
       vert-adv-y="90"><font-face
         font-family="Frutiger-Bold"
         id="font-face905" /><missing-glyph
         id="missing-glyph909"><path
           d="M0 0z"
           id="path907" /></missing-glyph><glyph
         unicode="/"
         horiz-adv-x="388"
         id="glyph913"><path
           d="M265.009 709.989l104.002 0 -244.005 -721.98 -104.002 0 244.005 721.98z"
           id="path911" /></glyph><glyph
         unicode="."
         horiz-adv-x="277"
         id="glyph917"><path
           d="M68.9948 140.002l140.002 0 0 -140.002 -140.002 0 0 140.002z"
           id="path915" /></glyph><glyph
         unicode="-"
         horiz-adv-x="333"
         id="glyph921"><path
           d="M35.0077 213.986l0 110.012 262.997 0 0 -110.012 -262.997 0z"
           id="path919" /></glyph><glyph
         unicode=","
         horiz-adv-x="277"
         id="glyph925"><path
           d="M86.9947 140.002l144.991 0 -90.9916 -250.014 -118.006 0 64.0059 250.014z"
           id="path923" /></glyph><glyph
         unicode="+"
         horiz-adv-x="600"
         id="glyph929"><path
           d="M248.002 506.009l104.002 0 0 -201.003 201.996 0 0 -104.002 -201.996 0 0 -201.003 -104.002 0 0 201.003 -201.996 0 0 104.002 201.996 0 0 201.003z"
           id="path927" /></glyph><glyph
         unicode="*"
         horiz-adv-x="556"
         id="glyph933"><path
           d="M345.003 474.999l96.0088 -107.007 -92.012 -65.9901 -71.0074 123.987 -75.9964 -123.987 -90.9916 65.9901 97.9931 107.007 -136.998 31.0108 32.9951 104.002 133.001 -57.0044 -15.9873 144.991 113.98 0 -16.9794 -143.999 133.001 56.0122 32.0029 -104.002 -139.01 -31.0108z"
           id="path931" /></glyph><glyph
         unicode=")"
         horiz-adv-x="333"
         id="glyph937"><path
           d="M7.00153 -140.002c46.006,74.0121 81.6656,147.004 107.007,219.003 25.3132,71.9995 37.984,148.336 37.984,229.01 0,86.6546 -11.8204,163.161 -35.4895,229.491 -23.6691,66.3303 -60.1791,139.152 -109.502,218.493l125.999 0c54.68,-75.3161 95.1585,-146.834 121.492,-214.496 26.3337,-67.6626 39.5147,-145.501 39.5147,-233.488 0,-82.0058 -13.5212,-159.023 -40.5068,-231.022 -27.014,-71.9995 -67.1807,-144.311 -120.5,-216.991l-125.999 0z"
           id="path935" /></glyph><glyph
         unicode="("
         horiz-adv-x="333"
         id="glyph941"><path
           d="M326.011 755.995c-48.6706,-78.009 -85.0105,-150.49 -109.02,-217.501 -23.981,-66.9823 -35.9998,-143.829 -35.9998,-230.484 0,-80.6735 12.3306,-156.84 37.0202,-228.499 24.6613,-71.6877 60.661,-144.849 107.999,-219.514l-127.02 0c-51.9871,70.6673 -91.6435,142.497 -118.998,215.488 -27.3258,73.02 -40.9887,150.519 -40.9887,232.525 0,87.9868 12.9826,165.826 39.0045,233.488 25.9935,67.6626 66.3303,139.18 120.982,214.496l127.02 0z"
           id="path939" /></glyph><glyph
         unicode="'"
         horiz-adv-x="277"
         id="glyph945"><path
           d="M78.009 697.999l122.002 0 0 -249.986 -122.002 0 0 249.986z"
           id="path943" /></glyph><glyph
         unicode="&amp;"
         horiz-adv-x="722"
         id="glyph949"><path
           d="M279.012 306.99c-26.6738,-14.0031 -47.5084,-29.6502 -62.5035,-46.9981 -14.9952,-17.3196 -22.5069,-39.0045 -22.5069,-64.998 0,-29.9904 11.3385,-54.6516 33.9872,-73.9838 22.677,-19.3322 50.6831,-28.9982 84.0184,-28.9982 25.9935,0 48.8123,3.14644 68.4846,9.496 19.6723,6.32122 37.5021,17.1495 53.5178,32.4848l-154.997 172.997zm121.974 233.006c0,23.329 -7.48342,41.1588 -22.4786,53.4894 -14.9952,12.359 -33.1651,18.5101 -54.5099,18.5101 -22.677,0 -41.669,-6.15114 -57.0044,-18.5101 -15.3353,-12.3306 -22.9888,-30.8124 -22.9888,-55.4737 0,-16.6676 5.15902,-31.5211 15.5054,-44.5037 10.318,-13.0109 27.1557,-31.1809 50.4847,-54.5099 20.6644,10.6582 41.0171,25.6817 61.0012,45.0139 20.0125,19.3322 29.9904,37.984 29.9904,55.9839zm115.001 -313c16.0156,17.9999 27.3542,39.9966 34.0155,65.9901 6.66138,26.0219 10.0062,54.68 10.0062,86.0026l122.002 0c0,-44.6454 -7.51176,-86.8246 -22.5069,-126.481 -14.9952,-39.6848 -37.162,-77.1869 -66.5004,-112.506l125.007 -140.002 -172.005 0 -46.9981 61.9933c-24.0093,-24.6613 -52.4973,-43.1714 -85.5207,-55.502 -32.9951,-12.3306 -67.8326,-18.4818 -104.484,-18.4818 -71.9995,0 -131.498,17.9999 -178.497,53.9997 -46.9981,35.9998 -70.4972,85.6625 -70.4972,148.988 0,44.6737 10.8283,82.0058 32.4848,111.996 21.6849,30.0187 59.839,56.6642 114.519,79.9932 -42.0092,40.0249 -68.683,71.1775 -80.0215,93.5144 -11.3385,22.3369 -16.9794,47.1682 -16.9794,74.494 0,49.3509 21.6566,88.1853 64.998,116.503 43.3131,28.3463 92.3238,42.4911 147.004,42.4911 55.3319,0 102.642,-13.1527 141.987,-39.4864 39.3446,-26.3337 58.9886,-65.8484 58.9886,-118.516 0,-43.3131 -11.1684,-78.4908 -33.477,-105.477 -22.3369,-27.014 -56.1823,-53.5178 -101.508,-79.5113l127.983 -140.002z"
           id="path947" /></glyph><glyph
         unicode="%"
         horiz-adv-x="999"
         id="glyph953"><path
           d="M791.003 172.005c0,28.0061 -4.33698,52.3272 -13.0109,72.9917 -8.64561,20.6644 -25.0014,31.0108 -48.9824,31.0108 -24.0093,0 -40.6769,-10.5165 -50.0028,-31.5211 -9.32593,-20.9762 -14.0031,-45.1556 -14.0031,-72.4814 0,-27.3258 4.67714,-51.5052 14.0031,-72.5098 9.32593,-21.0046 25.9935,-31.4927 50.0028,-31.4927 23.981,0 40.3368,10.318 48.9824,31.0108 8.67396,20.6644 13.0109,44.9855 13.0109,72.9917zm-114.009 547.99l82.0058 0 -431.997 -741.992 -82.0058 0 431.997 741.992zm-571.007 -194.002c0,57.9965 14.8534,103.18 44.5037,135.495 29.6786,32.3431 70.8373,48.5005 123.505,48.5005 53.3477,0 94.3364,-15.9873 122.995,-47.9902 28.6864,-32.0029 43.0013,-77.3286 43.0013,-136.005 0,-57.9965 -14.4849,-103.152 -43.4832,-135.495 -28.9982,-32.3431 -69.8452,-48.5005 -122.513,-48.5005 -53.3193,0 -94.6482,16.0156 -123.987,47.9902 -29.3384,32.0029 -44.0218,77.357 -44.0218,136.005zm230.002 0c0,28.0061 -4.30863,52.3272 -12.9826,73.02 -8.67396,20.6644 -25.0014,30.9825 -49.0107,30.9825 -23.981,0 -40.6486,-10.4881 -50.0028,-31.4927 -9.32593,-21.0046 -14.0031,-45.184 -14.0031,-72.5098 0,-27.3258 4.67714,-51.5052 14.0031,-72.4814 9.35427,-21.0046 26.0219,-31.5211 50.0028,-31.5211 24.0093,0 40.3368,10.3464 49.0107,31.0108 8.67396,20.6644 12.9826,44.9855 12.9826,72.9917zm225.013 -353.988c0,57.9965 14.8251,103.152 44.5037,135.495 29.6502,32.3431 70.8373,48.5005 123.505,48.5005 53.3193,0 94.3364,-15.9873 122.995,-47.9902 28.6581,-32.0029 43.0013,-77.357 43.0013,-136.005 0,-57.9965 -14.5133,-103.18 -43.5115,-135.495 -28.9982,-32.3431 -69.8169,-48.5005 -122.484,-48.5005 -53.3477,0 -94.6766,15.9873 -124.015,47.9902 -29.3384,32.0029 -43.9934,77.3286 -43.9934,136.005z"
           id="path951" /></glyph><glyph
         unicode="$"
         horiz-adv-x="556"
         id="glyph957"><path
           d="M259 589.999c-16.6676,-7.34169 -29.9904,-17.9999 -39.9966,-32.0029 -10.0062,-14.0031 -14.9952,-32.3431 -14.9952,-54.9918 0,-15.3353 4.64879,-28.3463 14.0031,-39.0045 9.32593,-10.6582 22.9888,-20.6644 40.9887,-29.9904l0 155.99zm46.9981 -478.003c17.3479,7.34169 31.3226,17.3479 42.0092,29.9904 10.6582,12.6708 15.9873,28.0061 15.9873,46.006 0,17.3479 -4.98894,32.173 -14.9952,44.5037 -10.0062,12.3306 -24.3211,23.1589 -43.0013,32.5132l0 -153.013zm0 669.993l0 -71.9995c59.3288,0 113.669,-8.33381 162.991,-25.0014l-12.9826 -115.001c-46.006,20.0125 -93.3443,30.0187 -142.015,30.0187l-7.99365 0 0 -185.328c68.6547,-27.3542 119.848,-54.1697 153.495,-80.6735 33.6754,-26.3337 50.5131,-71.1775 50.5131,-134.673 0,-62.1634 -18.6802,-110.324 -56.0122,-144.651 -37.332,-34.5258 -86.6546,-55.3603 -147.996,-62.6736l0 -82.0058 -46.9981 0 0 79.0011 -10.9984 -0.99212c-39.9966,0 -71.0074,2.32439 -93.0041,7.00153 -21.9967,4.64879 -50.6548,11.3102 -86.0026,19.9841l13.0109 125.999c24.6613,-13.3228 50.6548,-23.8392 77.9806,-31.4927 27.3542,-7.68184 53.9997,-11.5086 80.0215,-11.5086 7.99365,0 14.3149,0.680311 18.992,2.01259l0 187.652c-65.9901,26.0219 -115.993,52.4973 -150.009,79.1712 -33.9872,26.8439 -50.995,70.6673 -50.995,131.498 0,64.8279 18.6802,114.519 56.0122,149.016 37.332,34.3273 85.6625,55.3319 144.991,62.6453l0 71.9995 46.9981 0z"
           id="path955" /></glyph><glyph
         unicode="#"
         horiz-adv-x="556"
         id="glyph961"><path
           d="M493.991 205l-92.664 0.170078 -28.3179 -205.17 -88.0152 0 28.3463 205.17 -101.338 -0.170078 -30.3305 -205 -87.675 0 29.5085 205 -90.5097 0 0 79.9932 101.678 0 15.6471 128.182 -87.3065 -0.170078 0 79.9932 99.4954 0 28.488 205 89.0073 0 -28.5164 -205 102.018 0 28.488 205 88.0152 0 -28.0061 -205 80.9853 0 0 -79.9932 -92.9758 0 -17.6881 -127.842 81.6656 -0.170078 0 -79.9932zm-253.983 208.005l-17.6881 -127.842 102.018 0 17.6597 127.842 -101.99 0z"
           id="path959" /></glyph><glyph
         unicode="&quot;"
         horiz-adv-x="481"
         id="glyph965"><path
           d="M270.99 697.999l122.002 0 0 -249.986 -122.002 0 0 249.986zm-183.004 0l122.002 0 0 -249.986 -122.002 0 0 249.986z"
           id="path963" /></glyph><glyph
         unicode="!"
         horiz-adv-x="388"
         id="glyph969"><path
           d="M118.006 697.999l154.005 0 -21.0046 -492.998 -114.009 0 -18.992 492.998zm7.00153 -557.996l140.002 0 0 -140.002 -140.002 0 0 140.002z"
           id="path967" /></glyph><glyph
         unicode=" "
         horiz-adv-x="277"
         id="glyph971" /><glyph
         unicode="?"
         horiz-adv-x="499"
         id="glyph975"><path
           d="M50.0028 676.994c35.9998,10.6865 69.6752,18.8503 100.998,24.5195 31.3226,5.64091 63.6657,8.47554 97.001,8.47554 64.0059,0 118.006,-14.8251 161.999,-44.4753 43.9934,-29.6786 65.9901,-74.5224 65.9901,-134.503 0,-37.332 -14.655,-75.3444 -43.9934,-114.009 -27.3258,-31.3226 -54.6516,-62.6736 -82.0058,-93.9963 -29.3384,-36.6801 -43.9934,-71.6594 -43.9934,-104.995l0 -14.0031 -122.995 0c0,42.6611 6.4913,78.1507 19.5022,106.497 12.9826,28.3179 33.3352,57.9965 61.0012,89.0073 27.666,30.9825 45.6659,52.1572 53.9997,63.4957 8.33381,11.3385 12.5007,28.6581 12.5007,51.9871 0,30.6707 -10.9984,53.5178 -32.9951,68.513 -22.0251,14.9952 -49.3509,22.4786 -82.0058,22.4786 -20.6644,0 -42.1793,-2.32439 -64.5161,-6.97318 -22.3369,-4.67714 -52.1572,-15.6755 -89.4892,-33.0234l-10.9984 111.004zm125.007 -536.992l140.002 0 0 -140.002 -140.002 0 0 140.002z"
           id="path973" /></glyph><glyph
         unicode="&gt;"
         horiz-adv-x="600"
         id="glyph979"><path
           d="M418.986 253.161l-372.98 158.994 0 101.848 507.994 -218.011 0 -86.0026 -507.994 -217.983 0 102.16 372.98 158.994z"
           id="path977" /></glyph><glyph
         unicode="="
         horiz-adv-x="600"
         id="glyph983"><path
           d="M554 309.995l-507.994 0 0 104.002 507.994 0 0 -104.002zm0 -217.983l-507.994 0 0 103.974 507.994 0 0 -103.974z"
           id="path981" /></glyph><glyph
         unicode="&lt;"
         horiz-adv-x="600"
         id="glyph987"><path
           d="M554 -7.99365l-507.994 217.983 0 86.0026 507.994 218.011 0 -101.848 -373.009 -158.994 373.009 -158.994 0 -102.16z"
           id="path985" /></glyph><glyph
         unicode=";"
         horiz-adv-x="277"
         id="glyph991"><path
           d="M86.9947 140.002l144.991 0 -90.9916 -250.014 -118.006 0 64.0059 250.014zm-17.9999 374.993l140.002 0 0 -140.002 -140.002 0 0 140.002z"
           id="path989" /></glyph><glyph
         unicode=":"
         horiz-adv-x="277"
         id="glyph995"><path
           d="M68.9948 514.995l140.002 0 0 -140.002 -140.002 0 0 140.002zm0 -374.993l140.002 0 0 -140.002 -140.002 0 0 140.002z"
           id="path993" /></glyph><glyph
         unicode="9"
         horiz-adv-x="556"
         id="glyph999"><path
           d="M97.001 125.999c21.3447,-9.32593 41.499,-16.3275 60.491,-21.0046 19.0204,-4.64879 39.5147,-7.00153 61.5114,-7.00153 55.9839,0 97.6529,21.3447 125.007,64.0059 27.3258,42.6611 40.9887,93.3443 40.9887,151.993l0 2.01259c-31.4927,-46.658 -76.8184,-70.0153 -135.835,-70.0153 -64.998,0 -115.511,19.1904 -151.341,57.5146 -35.8297,38.3242 -53.8296,90.1695 -53.8296,155.508 0,77.9806 19.3322,139.322 57.9965,183.996 38.6643,44.6737 96.6892,66.9823 174.018,66.9823 88.6672,0 150.32,-30.1604 184.988,-90.4813 34.6675,-60.3492 52.0154,-138.5 52.0154,-234.509 0,-111.996 -22.0251,-206.162 -66.0185,-282.499 -43.9934,-76.3365 -117.665,-114.491 -220.988,-114.491 -50.6831,0 -99.6655,8.33381 -147.004,25.0014l17.9999 112.988zm276.008 356.001c0,36.6801 -7.85192,66.5004 -23.4991,89.4892 -15.6755,23.0172 -40.1667,34.4974 -73.5019,34.4974 -30.0187,0 -52.8375,-12.3306 -68.513,-36.9919 -15.6755,-24.6613 -23.4991,-53.9997 -23.4991,-87.9868 0,-37.332 7.82357,-68.513 23.4991,-93.5144 15.6755,-25.0014 39.5147,-37.5021 71.5177,-37.5021 31.9746,0 55.6437,12.3306 70.9791,37.0202 15.3353,24.6613 23.0172,56.3241 23.0172,94.9884z"
           id="path997" /></glyph><glyph
         unicode="8"
         horiz-adv-x="556"
         id="glyph1003"><path
           d="M369.012 518c0,25.9935 -7.85192,47.1682 -23.4991,63.4957 -15.6755,16.3275 -36.51,24.4912 -62.5035,24.4912 -27.3542,0 -51.165,-7.31334 -71.5177,-21.9967 -20.3243,-14.655 -30.5006,-35.3195 -30.5006,-61.9933 0,-26.6738 10.3464,-47.8202 31.0108,-63.4957 20.6644,-15.6755 46.9981,-29.5085 79.0011,-41.499 21.3164,7.34169 39.6564,20.6644 54.9918,39.9966 15.3353,19.3322 23.0172,39.6564 23.0172,61.0012zm151.993 -327.003c0,-67.3224 -21.8266,-118.006 -65.5082,-151.993 -43.6533,-34.0155 -101.82,-50.995 -174.5,-50.995 -73.3318,0 -132.661,16.6676 -177.986,50.0028 -45.354,33.3069 -68.0027,83.6499 -68.0027,151.001 0,73.9838 42.6611,131.64 127.983,172.997 -35.3195,16.6676 -63.4957,39.3163 -84.5003,68.0027 -21.0046,28.6581 -31.4927,60.661 -31.4927,95.9805 0,60.661 20.3243,106.497 61.0012,137.508 40.6769,31.0108 94.3364,46.4879 161.007,46.4879 66.6704,0 122.314,-14.1448 166.988,-42.4911 44.6737,-28.3179 67.0106,-70.157 67.0106,-125.489 0,-33.3352 -10.1763,-65.8484 -30.5006,-97.5112 -20.3243,-31.6628 -48.8406,-54.8217 -85.4924,-69.5051 89.3191,-42.6611 133.993,-104.002 133.993,-183.996zm-345.995 0c0,-28.0061 10.4881,-51.5052 31.4927,-70.4972 21.0046,-18.992 45.8359,-28.488 74.494,-28.488 29.3384,0 53.3477,8.33381 71.9995,25.0014 18.6802,16.6393 28.0061,39.3163 28.0061,67.9744 0,31.351 -10.6582,56.5225 -32.0029,75.5145 -21.3447,18.992 -49.6627,34.1573 -85.0105,45.4958 -27.9778,-13.3228 -49.8328,-28.9982 -65.4799,-46.9981 -15.6755,-17.9999 -23.4991,-40.6769 -23.4991,-68.0027z"
           id="path1001" /></glyph><glyph
         unicode="7"
         horiz-adv-x="556"
         id="glyph1007"><path
           d="M50.0028 697.999l449.997 0 0 -115.993 -248.002 -582.006 -151.993 0 259 587.987 -309.003 0 0 110.012z"
           id="path1005" /></glyph><glyph
         unicode="6"
         horiz-adv-x="556"
         id="glyph1011"><path
           d="M460.003 572c-21.3447,9.32593 -41.499,16.3275 -60.491,21.0046 -19.0204,4.64879 -39.5147,7.00153 -61.5114,7.00153 -56.0122,0 -97.6813,-21.3447 -125.007,-64.0059 -27.3258,-42.6611 -40.9887,-93.3443 -40.9887,-151.993l0 -2.01259c32.173,46.6863 77.4987,70.0153 135.835,70.0153 64.998,0 115.483,-19.1904 151.312,-57.5146 35.858,-38.3242 53.8579,-90.1695 53.8579,-155.508 0,-77.9806 -19.3322,-139.322 -58.0248,-183.996 -38.6643,-44.6454 -96.6608,-66.9823 -173.989,-66.9823 -88.6672,0 -150.32,30.1604 -184.988,90.4813 -34.6675,60.3492 -52.0154,138.5 -52.0154,234.509 0,111.996 21.9967,206.162 66.0185,282.499 43.9934,76.3365 117.665,114.491 220.988,114.491 50.6548,0 99.6655,-8.33381 147.004,-25.0014l-17.9999 -112.988zm-276.008 -356.001c0,-36.6517 7.82357,-66.5004 23.4991,-89.4892 15.6755,-23.0172 40.1667,-34.4974 73.5019,-34.4974 29.9904,0 52.8375,12.3306 68.513,36.9919 15.6471,24.6613 23.4991,53.9997 23.4991,87.9868 0,37.332 -7.85192,68.513 -23.4991,93.5144 -15.6755,25.0014 -39.5147,37.5021 -71.5177,37.5021 -32.0029,0 -55.6721,-12.3306 -70.9791,-37.0202 -15.3353,-24.6613 -23.0172,-56.3241 -23.0172,-94.9884z"
           id="path1009" /></glyph><glyph
         unicode="5"
         horiz-adv-x="556"
         id="glyph1015"><path
           d="M489.994 593.996l-269.006 0 -2.97636 -148.988c1.98424,0.651964 9.97789,1.98424 23.981,3.99683 14.0031,1.98424 27.3542,3.00471 39.9966,3.00471 60.6894,0 113.357,-17.3479 158.002,-52.0154 44.6737,-34.6675 67.0106,-93.0041 67.0106,-174.982 0,-69.335 -23.4991,-126.169 -70.4972,-170.503 -46.9981,-44.3336 -114.179,-66.5004 -201.514,-66.5004 -25.3132,0 -53.1493,1.98424 -83.4798,5.98106 -30.3305,3.99683 -56.8343,8.67396 -79.5113,14.0031l3.00471 125.007c23.329,-9.32593 46.658,-17.4897 69.987,-24.4912 23.329,-7.00153 47.6784,-10.5165 73.02,-10.5165 41.3289,0 76.4783,10.1763 105.477,30.5006 28.9982,20.3526 43.5115,51.165 43.5115,92.4939 0,41.3572 -15.5054,71.8578 -46.4879,91.5018 -31.0108,19.6723 -68.8531,29.5085 -113.498,29.5085 -43.3415,0 -85.0105,-6.32122 -125.007,-18.992l7.00153 374.993 400.986 0 0 -104.002z"
           id="path1013" /></glyph><glyph
         unicode="4"
         horiz-adv-x="556"
         id="glyph1019"><path
           d="M316.996 248.994l0 303.163 -175.152 -303.163 175.152 0zm-301.009 9.01412l261.013 439.991 173.989 0 0 -449.005 89.0073 0 0 -104.002 -89.0073 0 0 -144.991 -133.993 0 0 144.991 -301.009 0 0 113.017z"
           id="path1017" /></glyph><glyph
         unicode="3"
         horiz-adv-x="556"
         id="glyph1023"><path
           d="M53.0075 129.996c24.6613,-10.0062 50.1729,-17.8298 76.5066,-23.4991 26.3053,-5.66926 52.4973,-8.50388 78.4908,-8.50388 35.9998,0 69.5051,8.33381 100.488,25.0014 31.0108,16.6676 46.5162,41.3289 46.5162,74.0121 0,38.6643 -13.6629,66.5004 -41.0171,83.4798 -27.3258,17.0078 -64.998,25.5117 -112.988,25.5117l-68.0027 0 0 110.012 64.0059 0c47.9902,0 85.8325,7.82357 113.498,23.4991 27.666,15.6471 41.499,38.4942 41.499,68.4846 0,32.6833 -11.1684,56.1823 -33.5053,70.4972 -22.3369,14.3432 -51.165,21.5148 -86.5128,21.5148 -53.9997,0 -106.327,-12.3306 -156.982,-36.9919l-7.99365 111.996c59.3288,23.329 124.327,34.9793 194.994,34.9793 58.6484,0 111.656,-13.1527 158.994,-39.4864 47.3383,-26.3337 71.0074,-72.8499 71.0074,-139.492 0,-44.0218 -11.5086,-79.0011 -34.4974,-105.023 -23.0172,-25.9935 -54.85,-46.658 -95.4986,-61.9933 43.3131,-6.66138 76.3365,-25.1715 98.9852,-55.502 22.677,-30.3305 34.0155,-67.8326 34.0155,-112.506 0,-74.6641 -26.6738,-127.983 -80.0215,-159.986 -53.3193,-32.0029 -115.653,-47.9902 -187,-47.9902 -29.9904,0 -61.6532,1.98424 -94.9884,5.98106 -33.3352,3.99683 -62.6736,9.66608 -87.9868,17.0078l7.99365 118.998z"
           id="path1021" /></glyph><glyph
         unicode="2"
         horiz-adv-x="556"
         id="glyph1027"><path
           d="M40.9887 0l0 117.013c35.3478,33.3069 76.0247,71.8295 122.002,115.483 46.006,43.6816 87.505,90.5097 124.497,140.513 37.0202,50.0028 55.502,94.3364 55.502,133.001 0,30.6707 -11.1684,53.9997 -33.477,69.987 -22.3369,16.0156 -49.1808,24.0093 -80.5034,24.0093 -28.0061,0 -54.85,-4.84721 -80.5034,-14.5133 -25.6817,-9.66608 -52.4973,-23.4991 -80.5034,-41.499l-10.9984 115.993c65.3382,33.3352 134.333,50.0028 206.985,50.0028 68.683,0 122.343,-17.1495 161.007,-51.4768 38.6643,-34.3557 57.9965,-85.1806 57.9965,-152.503 0,-46.006 -12.5007,-91.0199 -37.5021,-135.013 -25.0014,-43.9934 -53.9997,-83.8199 -86.9947,-119.508 -32.9951,-35.6596 -79.1712,-82.8278 -138.5,-141.476l284.993 0 0 -110.012 -464 0z"
           id="path1025" /></glyph><glyph
         unicode="1"
         horiz-adv-x="556"
         id="glyph1031"><path
           d="M283.009 697.999l123.987 0 0 -697.999 -140.002 0 0 539.004 -118.006 -96.0088 -69.987 90.9916 204.008 164.012z"
           id="path1029" /></glyph><glyph
         unicode="0"
         horiz-adv-x="556"
         id="glyph1035"><path
           d="M381.002 346.987c0,72.6799 -6.00941,134.021 -17.9999,184.024 -11.9905,50.0028 -40.6769,74.9759 -86.0026,74.9759 -43.9934,0 -71.9995,-24.8313 -83.99,-74.494 -12.0188,-49.6627 -17.9999,-111.146 -17.9999,-184.506 0,-72.6515 5.81099,-133.313 17.4897,-181.983 11.6787,-48.6706 39.8265,-72.9917 84.5003,-72.9917 45.3257,0 74.0121,24.4912 86.0026,73.5019 11.9905,48.9824 17.9999,109.473 17.9999,181.473zm-345.995 0c0,102.018 18.6519,188.021 55.9839,258.008 37.332,70.0153 99.3537,104.995 186.008,104.995 92.012,0 155.678,-35.1494 190.997,-105.477 35.3478,-70.3555 53.0075,-156.188 53.0075,-257.526 0,-99.9773 -17.8298,-184.818 -53.5178,-254.493 -35.6596,-69.6468 -99.1553,-104.484 -190.487,-104.484 -66.6704,0 -117.665,18.3117 -153.013,54.9918 -35.3195,36.6517 -58.9886,81.1554 -70.9791,133.511 -12.0188,52.3272 -17.9999,109.162 -17.9999,170.475z"
           id="path1033" /></glyph><glyph
         unicode="•"
         horiz-adv-x="499"
         id="glyph1039"><path
           d="M250.014 522.989c47.3099,0 88.327,-16.9794 122.995,-50.995 34.6675,-33.9872 51.9871,-75.0043 51.9871,-122.995 0,-47.9902 -17.1495,-89.1774 -51.5052,-123.505 -34.3273,-34.3273 -75.4861,-51.5052 -123.476,-51.5052 -48.0186,0 -89.0073,17.0078 -123.023,51.0233 -33.9872,33.9872 -50.995,75.3161 -50.995,123.987 0,47.9902 17.0078,89.0073 50.995,122.995 34.0155,34.0155 75.0043,50.995 123.023,50.995z"
           id="path1037" /></glyph><glyph
         unicode="O"
         horiz-adv-x="777"
         id="glyph1043"><path
           d="M388.996 709.989c107.347,0 191.167,-32.825 251.517,-98.5033 60.3209,-65.65 90.4813,-152.475 90.4813,-260.474 0,-108.68 -29.8203,-196.355 -89.4892,-263.025 -59.6689,-66.6421 -143.829,-99.9773 -252.509,-99.9773 -109.332,0 -193.662,32.9951 -252.991,98.9852 -59.3288,66.0185 -89.0073,154.005 -89.0073,264.017 0,109.984 29.6786,197.318 89.0073,261.976 59.3288,64.6862 143.659,97.001 252.991,97.001zm0 -611.996c65.9901,0 115.171,24.6613 147.514,74.0121 32.3148,49.3225 48.5005,108.991 48.5005,179.007 0,69.335 -16.1857,128.154 -48.5005,176.484 -32.3431,48.3304 -81.5239,72.5098 -147.514,72.5098 -64.6579,0 -113.498,-24.3495 -146.494,-72.9917 -32.9951,-48.6706 -49.4926,-107.347 -49.4926,-176.002 0,-71.3476 15.9873,-131.357 47.9902,-179.999 32.0029,-48.6706 81.3255,-73.02 147.996,-73.02z"
           id="path1041" /></glyph><glyph
         unicode="N"
         horiz-adv-x="722"
         id="glyph1047"><path
           d="M74.0121 697.999l171.977 0 266.001 -522.337 2.01259 522.337 133.993 0 0 -697.999 -170.985 0 -267.022 521.997 -1.98424 -521.997 -133.993 0 0 697.999z"
           id="path1045" /></glyph><glyph
         unicode="M"
         horiz-adv-x="943"
         id="glyph1051"><path
           d="M81.0137 697.999l223.992 0 165.996 -528.998 168.008 528.998 223.992 0 0 -697.999 -133.993 0 0 575.996 -190.005 -575.996 -133.993 0 -188.021 575.996 -1.98424 -1.98424 0 -574.012 -133.993 0 0 697.999z"
           id="path1049" /></glyph><glyph
         unicode="L"
         horiz-adv-x="499"
         id="glyph1055"><path
           d="M81.0137 697.999l139.974 0 0 -587.987 271.019 0 0 -110.012 -410.993 0 0 697.999z"
           id="path1053" /></glyph><glyph
         unicode="K"
         horiz-adv-x="666"
         id="glyph1059"><path
           d="M81.0137 697.999l139.974 0 0 -299.989 251.998 299.989 172.005 0 -286.978 -328.987 298.997 -369.012 -183.004 0 -251.006 323.998 -2.01259 -323.998 -139.974 0 0 697.999z"
           id="path1057" /></glyph><glyph
         unicode="J"
         horiz-adv-x="388"
         id="glyph1063"><path
           d="M21.9967 122.002c9.32593,-3.34486 18.34,-6.17949 27.014,-8.50388 8.64561,-2.32439 21.9967,-3.48659 39.9966,-3.48659 39.9966,0 65.1681,11.3102 75.4861,33.9872 10.3464,22.677 15.5054,52.3272 15.5054,89.0073l0 464.992 140.002 0 0 -532.003c0,-44.6737 -15.5054,-85.4924 -46.4879,-122.484 -31.0108,-37.0202 -79.1712,-55.502 -144.509,-55.502 -24.0093,0 -42.1793,0.651964 -54.5099,1.98424 -12.3306,1.33228 -29.8203,5.01729 -52.4973,10.9984l0 121.01z"
           id="path1061" /></glyph><glyph
         unicode="I"
         horiz-adv-x="277"
         id="glyph1067"><path
           d="M68.9948 697.999l140.002 0 0 -697.999 -140.002 0 0 697.999z"
           id="path1065" /></glyph><glyph
         unicode="H"
         horiz-adv-x="722"
         id="glyph1071"><path
           d="M81.0137 697.999l139.974 0 0 -281.989 280.005 0 0 281.989 140.002 0 0 -697.999 -140.002 0 0 305.998 -280.005 0 0 -305.998 -139.974 0 0 697.999z"
           id="path1069" /></glyph><glyph
         unicode="G"
         horiz-adv-x="722"
         id="glyph1075"><path
           d="M625.999 563.014c-25.9935,11.9905 -54.8217,21.1463 -86.5128,27.4959 -31.6628,6.32122 -62.8154,9.496 -93.486,9.496 -79.3412,0 -141.335,-23.6691 -186.008,-71.0074 -44.6454,-47.3383 -66.9823,-107.999 -66.9823,-182.011 0,-73.3318 21.1463,-133.142 63.4957,-179.489 42.321,-46.3178 100.147,-69.5051 173.508,-69.5051 34.6675,0 65.3098,3.34486 91.9837,10.0062l0 182.011 -147.996 0 0 109.984 281.989 0 0 -375.985c-38.6643,-10.6865 -77.6688,-19.3322 -116.985,-26.0219 -39.3446,-6.66138 -75.6846,-9.97789 -108.991,-9.97789 -116.673,0 -209.677,29.4801 -279.012,88.4971 -69.335,58.9886 -104.002,145.813 -104.002,260.502 0,118.658 33.8455,210.499 101.508,275.497 67.6626,64.998 161.489,97.4829 281.507,97.4829 41.9808,0 77.9806,-2.15432 107.999,-6.4913 29.9904,-4.33698 62.3335,-11.8204 97.001,-22.5069l-9.01412 -117.977z"
           id="path1073" /></glyph><glyph
         unicode="F"
         horiz-adv-x="499"
         id="glyph1079"><path
           d="M81.0137 697.999l387.976 0 0 -110.012 -248.002 0 0 -171.977 236.011 0 0 -110.012 -236.011 0 0 -305.998 -139.974 0 0 697.999z"
           id="path1077" /></glyph><glyph
         unicode="E"
         horiz-adv-x="556"
         id="glyph1083"><path
           d="M81.0137 697.999l411.985 0 0 -110.012 -272.011 0 0 -171.977 249.022 0 0 -110.012 -249.022 0 0 -195.986 274.023 0 0 -110.012 -413.997 0 0 697.999z"
           id="path1081" /></glyph><glyph
         unicode="D"
         horiz-adv-x="722"
         id="glyph1087"><path
           d="M81.0137 697.999l190.997 0c122.002,0 219.655,-25.9935 292.987,-78.009 73.3318,-51.9871 110.012,-142.327 110.012,-270.99 0,-128.012 -36.8502,-218.153 -110.522,-270.509 -73.6436,-52.3272 -171.155,-78.4908 -292.477,-78.4908l-190.997 0 0 697.999zm139.974 -587.987l78.009 0c61.9933,0 115.823,21.4865 161.517,64.4878 45.6659,43.0013 68.4846,101.168 68.4846,174.5 0,71.9995 -22.8188,129.826 -68.4846,173.508 -45.6942,43.6533 -99.5238,65.4799 -161.517,65.4799l-78.009 0 0 -477.975z"
           id="path1085" /></glyph><glyph
         unicode="C"
         horiz-adv-x="611"
         id="glyph1091"><path
           d="M589.007 10.0062c-25.9935,-6.00941 -53.3477,-11.1684 -82.0058,-15.5054 -28.6581,-4.33698 -54.3398,-6.4913 -76.9885,-6.4913 -116.673,0 -209.677,29.4801 -279.012,88.4971 -69.335,58.9886 -104.002,145.813 -104.002,260.502 0,118.658 33.8455,210.499 101.508,275.497 67.6626,64.998 161.489,97.4829 281.507,97.4829 23.981,0 50.1446,-2.49447 78.4908,-7.48342 28.3179,-5.01729 54.8217,-12.1606 79.483,-21.5148l-9.97789 -117.977c-25.3416,14.655 -49.6627,24.4912 -73.02,29.4801 -23.329,5.01729 -49.3225,7.51176 -77.9806,7.51176 -70.6673,0 -127.331,-24.0093 -170.021,-71.9995 -42.6611,-48.0186 -63.9775,-108.339 -63.9775,-181.019 0,-73.3318 21.1463,-133.142 63.4957,-179.489 42.321,-46.3178 100.147,-69.5051 173.508,-69.5051 27.9778,0 56.4941,2.66455 85.4924,7.99365 28.9982,5.35745 51.5052,12.359 67.4925,21.0046l6.00941 -116.985z"
           id="path1089" /></glyph><glyph
         unicode="B"
         horiz-adv-x="611"
         id="glyph1095"><path
           d="M220.988 110.012l66.0185 0c39.9966,0 73.9838,7.00153 101.99,20.9762 28.0061,14.0031 42.0092,39.3446 42.0092,76.0247 0,40.6486 -13.3511,68.3145 -39.9966,82.9979 -26.6738,14.655 -61.3413,21.9967 -104.002,21.9967l-66.0185 0 0 -201.996zm0 305.998l57.0044 0c37.332,0 68.683,5.98106 93.9963,17.9999 25.3416,11.9905 38.0124,34.3273 38.0124,66.9823 0,35.9998 -11.9905,59.4988 -35.9998,70.4972 -24.0093,10.9984 -57.0044,16.4975 -99.0135,16.4975l-53.9997 0 0 -171.977zm-139.974 281.989l243.976 0c60.0091,0 112.506,-12.8409 157.52,-38.4942 44.9855,-25.6817 67.4925,-72.5098 67.4925,-140.513 0,-40.6486 -12.6708,-75.0043 -38.0124,-102.982 -25.3132,-28.0061 -58.9886,-45.6659 -100.998,-53.0075 48.0186,-5.3291 86.6829,-22.677 116.021,-52.0154 29.3101,-29.3101 43.9934,-65.65 43.9934,-108.991 0,-77.3286 -25.3416,-130.336 -75.9964,-158.994 -50.6831,-28.6581 -107.347,-43.0013 -170.021,-43.0013l-243.976 0 0 697.999z"
           id="path1093" /></glyph><glyph
         unicode="A"
         horiz-adv-x="722"
         id="glyph1099"><path
           d="M358.013 557.996l-103.01 -287.998 204.008 0 -100.998 287.998zm-77.0168 140.002l158.002 0 273.995 -697.999 -154.997 0 -60.0091 159.986 -282.981 0 -61.0012 -159.986 -144.991 0 271.983 697.999z"
           id="path1097" /></glyph><glyph
         unicode="@"
         horiz-adv-x="799"
         id="glyph1103"><path
           d="M302.993 317.989c0,-23.981 6.66138,-43.6533 20.0125,-58.9886 13.3228,-15.3353 31.6628,-22.9888 54.9918,-22.9888 30.6707,0 56.8343,13.4928 78.4908,40.4785 21.6849,27.014 32.5132,56.8343 32.5132,89.5175 0,23.981 -6.66138,43.3131 -20.0125,57.9965 -13.3228,14.655 -31.3226,21.9967 -53.9997,21.9967 -32.0029,0 -58.6484,-13.181 -79.9932,-39.4864 -21.3164,-26.3337 -32.0029,-55.8422 -32.0029,-88.5254zm413.005 -174.982c-35.9998,-52.6674 -80.9853,-91.6719 -134.985,-117.013 -53.9997,-25.3132 -114.349,-37.984 -181.019,-37.984 -95.3285,0 -179.659,31.8329 -252.991,95.4986 -73.3318,63.6657 -110.012,152.163 -110.012,265.491 0,100.658 36.6801,186.008 110.012,255.995 73.3318,70.0153 165.656,104.995 277,104.995 89.9994,0 169.001,-25.1431 237.003,-75.4861 68.0027,-50.343 101.99,-123.165 101.99,-218.493 0,-89.9994 -29.6502,-158.853 -89.0073,-206.503 -59.3288,-47.6784 -113.669,-71.5177 -162.991,-71.5177 -15.3353,0 -28.1762,4.33698 -38.4942,13.0109 -10.3464,8.67396 -15.5054,21.6566 -15.5054,39.0045 -14.655,-15.3353 -30.8408,-27.836 -48.5005,-37.5021 -17.6597,-9.66608 -35.8297,-14.5133 -54.5099,-14.5133 -42.6611,0 -79.1428,15.5054 -109.502,46.5162 -30.3305,30.9825 -45.4958,70.4972 -45.4958,118.487 0,66.0185 20.0125,122.683 60.0091,169.993 39.9966,47.3383 88.6672,71.0074 146.012,71.0074 48.6422,0 87.3349,-21.3164 115.993,-64.0059l11.9905 48.0186 84.0184 0 -55.0201 -243.013c-1.98424,-7.31334 -3.65667,-14.0031 -4.98894,-19.9841 -1.33228,-6.00941 -2.01259,-10.6865 -2.01259,-14.0031 0,-10.0062 5.01729,-14.9952 14.9952,-14.9952 28.6864,0 54.68,15.3353 78.009,45.9777 23.329,30.6707 35.0077,74.3523 35.0077,131.016 0,73.9838 -25.5117,126.651 -76.5066,158.002 -50.995,31.3226 -111.826,46.9981 -182.493,46.9981 -81.3255,0 -148.846,-26.5038 -202.506,-79.5113 -53.6595,-53.0075 -80.5034,-116.163 -80.5034,-189.495 0,-78.009 24.3495,-142.327 72.9917,-193.01 48.6706,-50.6548 110.692,-75.9964 186.008,-75.9964 48.0186,0 91.1616,4.33698 129.514,13.0109 38.3242,8.67396 72.1696,25.3416 101.48,50.0028l85.0105 0z"
           id="path1101" /></glyph><glyph
         unicode="_"
         horiz-adv-x="499"
         id="glyph1107"><path
           d="M0 -125.007l0 50.0028 500 0 0 -50.0028 -500 0z"
           id="path1105" /></glyph><glyph
         unicode="^"
         horiz-adv-x="600"
         id="glyph1111"><path
           d="M65.9901 313l187 384.999 93.9963 0 187 -384.999 -103.662 0.170078 -130.336 279.834 -130.308 -279.834 -103.691 -0.170078z"
           id="path1109" /></glyph><glyph
         unicode="]"
         horiz-adv-x="333"
         id="glyph1115"><path
           d="M261.013 755.995l0 -895.998 -224.021 0 0 97.9931 96.0088 0 0 700.011 -96.0088 0 0 97.9931 224.021 0z"
           id="path1113" /></glyph><glyph
         unicode="\"
         horiz-adv-x="388"
         id="glyph1119"><path
           d="M20.0125 709.989l103.974 0 244.005 -721.98 -104.002 0 -243.976 721.98z"
           id="path1117" /></glyph><glyph
         unicode="["
         horiz-adv-x="333"
         id="glyph1123"><path
           d="M71.9995 755.995l223.992 0 0 -97.9931 -95.9805 0 0 -700.011 95.9805 0 0 -97.9931 -223.992 0 0 895.998z"
           id="path1121" /></glyph><glyph
         unicode="Z"
         horiz-adv-x="556"
         id="glyph1127"><path
           d="M35.9998 114.009l327.995 473.978 -314.984 0 0 110.012 464 0 0 -114.009 -330.999 -473.978 338.001 0 0 -110.012 -484.013 0 0 114.009z"
           id="path1125" /></glyph><glyph
         unicode="Y"
         horiz-adv-x="666"
         id="glyph1131"><path
           d="M266.001 276.008l-255.003 421.991 164.012 0 165.004 -292.987 167.98 292.987 147.996 0 -249.986 -421.991 0 -276.008 -140.002 0 0 276.008z"
           id="path1129" /></glyph><glyph
         unicode="X"
         horiz-adv-x="666"
         id="glyph1135"><path
           d="M238.987 363.002l-207.977 334.996 161.999 0 145.983 -248.994 149.016 248.994 149.98 0 -209.989 -334.996 229.01 -363.002 -165.004 0 -161.007 272.011 -162.991 -272.011 -158.002 0 228.981 363.002z"
           id="path1133" /></glyph><glyph
         unicode="W"
         horiz-adv-x="999"
         id="glyph1139"><path
           d="M10.0062 697.999l147.004 0 129.996 -557.996 120.982 557.996 190.005 0 122.995 -557.996 133.001 557.996 136.005 0 -181.983 -697.999 -179.999 0 -125.999 557.996 -125.999 -557.996 -181.019 0 -184.988 697.999z"
           id="path1137" /></glyph><glyph
         unicode="V"
         horiz-adv-x="666"
         id="glyph1143"><path
           d="M10.0062 697.999l149.98 0 179.007 -547.99 179.007 547.99 139.01 0 -235.019 -697.999 -171.977 0 -240.008 697.999z"
           id="path1141" /></glyph><glyph
         unicode="U"
         horiz-adv-x="722"
         id="glyph1147"><path
           d="M75.9964 697.999l140.002 0 0 -402.999c0,-63.3256 11.3385,-111.996 34.0155,-146.012 22.6487,-33.9872 59.6406,-50.995 110.976,-50.995 50.6831,0 87.505,17.3479 110.522,52.0154 22.9888,34.6675 34.4974,82.9979 34.4974,144.991l0 402.999 140.002 0 0 -446c0,-90.6514 -24.3495,-157.322 -73.02,-200.011 -48.6706,-42.6611 -119.338,-63.9775 -212.002,-63.9775 -93.3159,0 -164.153,21.0046 -212.484,62.9854 -48.3304,42.0092 -72.5098,108.991 -72.5098,201.003l0 446z"
           id="path1145" /></glyph><glyph
         unicode="T"
         horiz-adv-x="556"
         id="glyph1151"><path
           d="M208.005 587.987l-200.011 0 0 110.012 539.997 0 0 -110.012 -199.983 0 0 -587.987 -140.002 0 0 587.987z"
           id="path1149" /></glyph><glyph
         unicode="S"
         horiz-adv-x="556"
         id="glyph1155"><path
           d="M456.007 569.987c-46.006,20.0125 -93.3443,30.0187 -142.015,30.0187 -29.3384,0 -54.9918,-7.51176 -76.9885,-22.5069 -21.9967,-14.9952 -32.9951,-39.8265 -32.9951,-74.494 0,-31.351 33.9872,-61.3413 101.99,-89.9994 68.0027,-28.6581 118.998,-54.85 153.013,-78.5192 33.9872,-23.6408 50.995,-68.8248 50.995,-135.495 0,-71.9995 -24.3495,-125.149 -73.02,-159.505 -48.6422,-34.3273 -111.656,-51.4768 -188.985,-51.4768 -39.9966,0 -71.0074,2.32439 -93.0041,7.00153 -21.9967,4.64879 -50.6548,11.3102 -86.0026,19.9841l13.0109 125.999c24.6613,-13.3228 50.6548,-23.8392 77.9806,-31.4927 27.3542,-7.68184 53.9997,-11.5086 80.0215,-11.5086 31.3226,0 59.839,7.68184 85.4924,23.0172 25.6534,15.3353 38.4942,37.6439 38.4942,66.9823 0,35.3478 -35.6596,68.8531 -107.007,100.516 -71.3192,31.6628 -122.314,57.9965 -152.985,79.0011 -30.6707,21.0046 -46.006,64.1476 -46.006,129.486 0,72.6799 23.4991,126.339 70.4972,161.007 46.9981,34.6675 104.853,51.9871 173.508,51.9871 61.3413,0 116.985,-8.33381 166.988,-25.0014l-12.9826 -115.001z"
           id="path1153" /></glyph><glyph
         unicode="R"
         horiz-adv-x="611"
         id="glyph1159"><path
           d="M208.997 399.994l46.006 0c57.9965,0 97.171,8.33381 117.495,25.0014 20.3243,16.6676 30.5006,40.6769 30.5006,71.9995 0,37.332 -13.1527,61.8516 -39.4864,73.5019 -26.3337,11.6787 -62.5035,17.4897 -108.51,17.4897l-46.006 0 0 -187.993zm-140.002 298.004l151.001 0c75.9964,0 133.993,-2.66455 174.018,-7.99365 39.9966,-5.3291 75.8263,-21.6849 107.489,-49.0107 31.6628,-27.3258 47.5084,-71.3192 47.5084,-131.98 0,-42.0092 -13.0109,-78.009 -39.0045,-108.028 -25.9935,-29.9904 -61.0012,-47.9902 -104.995,-53.9997 16.6676,-0.651964 30.8124,-7.82357 42.4911,-21.4865 11.6503,-13.6629 22.1668,-31.1809 31.4927,-52.4973l111.996 -273.003 -155.99 0 -83.99 218.011c-10.6865,27.3258 -22.3369,46.1477 -35.0077,56.4941 -12.6708,10.318 -33.3352,15.5054 -61.9933,15.5054l-45.0139 0 0 -290.011 -140.002 0 0 697.999z"
           id="path1157" /></glyph><glyph
         unicode="Q"
         horiz-adv-x="777"
         id="glyph1163"><path
           d="M543.653 -132.32l-121.662 122.314c-5.3291,0 -11.1684,0 -17.4897,0 -6.32122,0 -11.5086,0 -15.5054,0 -109.332,0 -193.662,32.8533 -252.991,98.6734 -59.3288,65.8201 -89.0073,153.665 -89.0073,263.337 0,109.672 29.6786,196.837 89.0073,261.324 59.3288,64.5161 143.659,96.6608 252.991,96.6608 107.347,0 191.167,-32.825 251.517,-98.5033 60.3209,-65.65 90.4813,-152.475 90.4813,-260.474 0,-76.0247 -15.1653,-142.525 -45.4958,-199.501 -30.3305,-57.0044 -73.8421,-99.1836 -130.506,-126.509l158.002 -157.01 -169.341 -0.311809zm-154.657 230.314c65.9901,0 115.171,24.6613 147.514,74.0121 32.3148,49.3225 48.5005,108.991 48.5005,179.007 0,69.335 -16.1857,128.154 -48.5005,176.484 -32.3431,48.3304 -81.5239,72.5098 -147.514,72.5098 -64.6579,0 -113.498,-24.3495 -146.494,-72.9917 -32.9951,-48.6706 -49.4926,-107.347 -49.4926,-176.002 0,-71.3476 15.9873,-131.357 47.9902,-179.999 32.0029,-48.6706 81.3255,-73.02 147.996,-73.02z"
           id="path1161" /></glyph><glyph
         unicode="P"
         horiz-adv-x="556"
         id="glyph1167"><path
           d="M208.997 374.993l49.0107 0c40.6486,0 72.9917,7.85192 97.001,23.4991 23.981,15.6755 35.9998,42.5194 35.9998,80.5034 0,38.0124 -12.1889,65.6783 -36.51,82.9979 -24.3211,17.3479 -56.4941,25.9935 -96.4907,25.9935l-49.0107 0 0 -212.994zm-140.002 323.006l176.994 0c87.3349,0 157.69,-15.8456 211.01,-47.5084 53.3477,-31.6628 79.9932,-86.1443 79.9932,-163.501 0,-76.6483 -24.4912,-132.831 -73.5019,-168.49 -48.9824,-35.6596 -114.15,-53.4894 -195.476,-53.4894l-59.017 0 0 -265.009 -140.002 0 0 697.999z"
           id="path1165" /></glyph><glyph
         unicode="o"
         horiz-adv-x="611"
         id="glyph1171"><path
           d="M305.006 527.014c78.6609,0 143.319,-24.6896 194.002,-74.0121 50.6548,-49.3225 75.9964,-115.681 75.9964,-198.991 0,-76.0247 -24.3495,-139.35 -72.9917,-190.005 -48.6706,-50.6831 -114.349,-75.9964 -197.007,-75.9964 -82.6861,0 -148.166,25.1431 -196.496,75.4861 -48.3304,50.343 -72.5098,113.839 -72.5098,190.515 0,83.3097 25.3416,149.668 75.9964,198.991 50.6831,49.3225 115.001,74.0121 193.01,74.0121zm0 -435.002c46.658,0 79.9932,16.9794 100.006,50.995 19.9841,33.9872 29.9904,76.3365 29.9904,126.991 0,42.6611 -11.1684,78.831 -33.5053,108.51 -22.3369,29.6502 -54.5099,44.5037 -96.4907,44.5037 -41.3289,0 -73.1617,-15.0235 -95.4986,-45.0139 -22.3369,-29.9904 -33.5053,-65.9901 -33.5053,-107.999 0,-50.6548 9.83616,-93.0041 29.5085,-126.991 19.644,-34.0155 52.8091,-50.995 99.4954,-50.995z"
           id="path1169" /></glyph><glyph
         unicode="n"
         horiz-adv-x="611"
         id="glyph1175"><path
           d="M68.9948 514.995l126.991 0 0 -69.987c21.3447,28.6581 46.006,49.4926 74.0121,62.5035 28.0061,12.9826 60.3209,19.5022 97.001,19.5022 58.6768,0 102.5,-18.34 131.498,-55.0201 28.9982,-36.6517 43.5115,-85.6625 43.5115,-147.004l0 -324.99 -134.021 0 0 274.987c0,45.354 -4.98894,81.3538 -14.9952,107.999 -10.0062,26.6738 -33.9872,40.0249 -71.9995,40.0249 -43.3131,0 -73.8137,-17.6881 -91.5018,-53.0075 -17.6597,-35.3478 -26.5038,-74.6641 -26.5038,-118.006l0 -251.998 -133.993 0 0 514.995z"
           id="path1173" /></glyph><glyph
         unicode="m"
         horiz-adv-x="888"
         id="glyph1179"><path
           d="M67.0106 514.995l124.979 0 0 -71.9995c20.0125,28.6581 44.0218,49.8328 71.9995,63.4957 28.0061,13.6629 55.6721,20.5227 82.9979,20.5227 36.6801,0 67.5208,-7.17161 92.5223,-21.5148 25.0014,-14.3432 44.8155,-37.5021 59.4988,-69.5051 15.3353,30.0187 37.5021,52.6674 66.5004,68.0027 28.9982,15.3353 60.491,23.0172 94.4781,23.0172 59.3571,0 101.338,-17.9999 126.028,-54.028 24.6613,-35.9998 36.9919,-85.3223 36.9919,-147.996l0 -324.99 -133.993 0 0 306.99c0,35.9998 -4.33698,64.3461 -13.0109,85.0105 -8.67396,20.6644 -29.9904,31.0108 -64.0059,31.0108 -29.9904,0 -54.1697,-13.5212 -72.5098,-40.5068 -18.3117,-27.014 -27.4959,-71.1775 -27.4959,-132.491l0 -250.014 -133.993 0 0 306.99c0,35.9998 -4.33698,64.3461 -13.0109,85.0105 -8.64561,20.6644 -29.9904,31.0108 -63.9775,31.0108 -30.0187,0 -54.1697,-13.5212 -72.5098,-40.5068 -18.34,-27.014 -27.4959,-71.1775 -27.4959,-132.491l0 -250.014 -133.993 0 0 514.995z"
           id="path1177" /></glyph><glyph
         unicode="l"
         horiz-adv-x="277"
         id="glyph1183"><path
           d="M71.9995 750.014l133.993 0 0 -750.014 -133.993 0 0 750.014z"
           id="path1181" /></glyph><glyph
         unicode="k"
         horiz-adv-x="556"
         id="glyph1187"><path
           d="M71.9995 750.014l133.993 0 0 -441.011 161.999 205.992 158.002 0 -191.989 -230.002 215.999 -284.993 -169.993 0 -172.005 250.014 -2.01259 -250.014 -133.993 0 0 750.014z"
           id="path1185" /></glyph><glyph
         unicode="j"
         horiz-adv-x="277"
         id="glyph1191"><path
           d="M-10.0062 -118.006c35.3478,0 57.8264,6.17949 67.4925,18.5101 9.69443,12.3306 14.5133,38.8344 14.5133,79.483l0 535.008 133.993 0 0 -553.008c0,-49.3225 -10.9984,-92.3238 -32.9951,-128.976 -21.9967,-36.6801 -62.6736,-55.0201 -122.002,-55.0201 -25.9935,0 -47.9902,2.66455 -65.9901,8.022l4.98894 95.9805zm82.0058 855.009l133.993 0 0 -128.012 -133.993 0 0 128.012z"
           id="path1189" /></glyph><glyph
         unicode="i"
         horiz-adv-x="277"
         id="glyph1195"><path
           d="M71.9995 514.995l133.993 0 0 -514.995 -133.993 0 0 514.995zm0 222.008l133.993 0 0 -128.012 -133.993 0 0 128.012z"
           id="path1193" /></glyph><glyph
         unicode="h"
         horiz-adv-x="611"
         id="glyph1199"><path
           d="M68.9948 750.014l133.993 0 0 -305.006c18.6802,25.9935 41.8391,46.1477 69.5051,60.491 27.666,14.3432 59.187,21.5148 94.5065,21.5148 58.6768,0 102.5,-18.34 131.498,-55.0201 28.9982,-36.6517 43.5115,-85.6625 43.5115,-147.004l0 -324.99 -134.021 0 0 274.987c0,45.354 -4.98894,81.3538 -14.9952,107.999 -10.0062,26.6738 -33.9872,40.0249 -71.9995,40.0249 -43.3131,0 -73.8137,-17.6881 -91.5018,-53.0075 -17.6597,-35.3478 -26.5038,-74.6641 -26.5038,-118.006l0 -251.998 -133.993 0 0 750.014z"
           id="path1197" /></glyph><glyph
         unicode="g"
         horiz-adv-x="611"
         id="glyph1203"><path
           d="M407.988 262.997c0,47.3383 -9.15585,85.8325 -27.4959,115.511 -18.3117,29.6502 -46.4879,44.5037 -84.5003,44.5037 -41.9808,0 -72.4814,-15.8456 -91.5018,-47.5084 -18.992,-31.6628 -28.488,-70.157 -28.488,-115.511 0,-39.3163 10.0062,-75.146 29.9904,-107.489 20.0125,-32.3431 48.0186,-48.5005 84.0184,-48.5005 39.3163,0 68.8248,14.9952 88.4971,44.9855 19.6723,30.0187 29.4801,68.0027 29.4801,114.009zm134.021 251.998l0 -464.992c0,-79.9932 -20.5227,-145.331 -61.5114,-196.015 -40.9887,-50.6548 -111.174,-75.9964 -210.499,-75.9964 -30.6707,0 -60.1508,2.49447 -88.4971,7.51176 -28.3463,4.98894 -58.1666,14.1731 -89.4892,27.4959l10.9984 114.009c23.329,-12.6708 48.9824,-23.329 76.9885,-32.0029 28.0061,-8.67396 52.3272,-13.0109 72.9917,-13.0109 65.3382,0 107.517,17.9999 126.509,53.9997 18.992,35.9998 28.488,84.6703 28.488,146.012 -13.9747,-22.677 -35.6596,-42.0092 -64.998,-57.9965 -29.3101,-16.0156 -61.6532,-24.0093 -97.001,-24.0093 -71.3192,0 -124.157,24.3211 -158.484,72.9917 -34.3273,48.6706 -51.5052,111.004 -51.5052,187 0,70.6673 18.5101,132.831 55.502,186.519 36.9919,53.6595 91.1616,80.5034 162.509,80.5034 35.9998,0 66.6421,-6.17949 91.9837,-18.5101 25.3416,-12.3306 47.3383,-33.5053 66.0185,-63.4957l1.98424 69.987 128.012 0z"
           id="path1201" /></glyph><glyph
         unicode="f"
         horiz-adv-x="388"
         id="glyph1207"><path
           d="M118.006 417.002l-99.0135 0 0 97.9931 99.0135 0 0 71.9995c0,52.6674 14.3149,95.0167 43.0013,126.991 28.6581,32.0029 68.9948,48.0186 120.982,48.0186 17.3479,0 34.1856,-0.99212 50.5131,-3.00471 16.3275,-2.01259 32.173,-4.67714 47.5084,-7.99365l-10.9984 -111.004c-10.0062,6.00941 -20.0125,10.4881 -30.0187,13.4928 -10.0062,3.00471 -19.3322,4.50706 -28.0061,4.50706 -20.6644,0 -35.6596,-7.51176 -44.9855,-22.5069 -9.32593,-14.9952 -14.0031,-33.8171 -14.0031,-56.4941l0 -64.0059 117.013 0 0 -97.9931 -117.013 0 0 -417.002 -133.993 0 0 417.002z"
           id="path1205" /></glyph><glyph
         unicode="e"
         horiz-adv-x="556"
         id="glyph1211"><path
           d="M392.001 308.011c0,35.3195 -9.15585,64.3177 -27.4959,86.9947 -18.34,22.6487 -45.4958,33.9872 -81.4955,33.9872 -35.9998,0 -64.0059,-10.9984 -84.0184,-32.9951 -19.9841,-21.9967 -31.6628,-51.3351 -34.9793,-87.9868l227.989 0zm89.9994 -279.012c-49.3225,-27.3258 -108.339,-40.9887 -176.994,-40.9887 -84.6703,0 -150.66,23.329 -197.999,69.987 -47.3383,46.658 -71.0074,112.336 -71.0074,197.007 0,78.6609 20.4944,143.659 61.5114,194.994 40.9887,51.3351 100.147,77.0168 177.476,77.0168 89.3475,0 152.503,-27.1841 189.523,-81.5239 36.9919,-54.3115 55.502,-130.818 55.502,-229.491l-356.001 0c0,-40.6769 13.6629,-72.5098 40.9887,-95.4986 27.3258,-22.9888 62.6736,-34.4974 105.987,-34.4974 30.6707,0 59.3571,4.50706 86.0026,13.4928 26.6738,9.01412 55.0201,21.8266 85.0105,38.4942l0 -108.991z"
           id="path1209" /></glyph><glyph
         unicode="d"
         horiz-adv-x="611"
         id="glyph1215"><path
           d="M289.501 92.012c40.8186,0 70.8373,16.9794 89.8294,50.995 19.1621,33.9872 28.6581,72.6515 28.6581,115.993 0,42.6611 -9.97789,80.6735 -30.1604,114.009 -19.9841,33.3352 -50.1729,50.0028 -90.3396,50.0028 -39.4864,0 -67.9744,-16.6676 -85.3223,-50.0028 -17.4897,-33.3352 -26.1636,-71.3476 -26.1636,-114.009 0,-43.9934 8.84404,-82.8278 26.6738,-116.503 17.6597,-33.6754 46.658,-50.4847 86.8246,-50.4847zm122.513 -34.0155c-20.6928,-24.6613 -44.1918,-42.4911 -70.5255,-53.4894 -26.3337,-10.9984 -56.154,-16.4975 -89.4892,-16.4975 -74.0121,0 -128.494,25.6534 -163.501,76.9885 -35.0077,51.3351 -52.4973,115.993 -52.4973,194.002 0,78.6609 17.3196,143.007 51.9871,193.01 34.6675,50.0028 89.3475,75.0043 164.012,75.0043 63.3256,0 114.661,-24.0093 154.005,-72.0279l1.98424 295.028 134.021 0 0 -750.014 -129.996 0 0 57.9965z"
           id="path1213" /></glyph><glyph
         unicode="c"
         horiz-adv-x="443"
         id="glyph1219"><path
           d="M402.999 403.991c-14.0031,6.66138 -27.4959,11.5086 -40.5068,14.5133 -12.9826,3.00471 -29.8203,4.50706 -50.4847,4.50706 -41.3289,0 -74.3523,-15.0235 -99.0135,-45.0139 -24.6613,-29.9904 -36.9919,-69.335 -36.9919,-118.006 0,-50.0028 11.8204,-90.4813 35.4895,-121.492 23.6691,-31.0108 58.1666,-46.4879 103.521,-46.4879 17.3196,0 34.8092,2.32439 52.4973,7.00153 17.6597,4.64879 34.4974,10.318 50.4847,16.9794l6.00941 -111.004c-18.6802,-5.98106 -38.6643,-10.318 -60.0091,-12.9826 -21.3164,-2.66455 -46.006,-3.99683 -73.9838,-3.99683 -81.3538,0 -143.999,25.0014 -188.021,75.0043 -43.9934,49.9745 -65.9901,115.653 -65.9901,196.978 0,77.3286 21.9967,141.164 65.9901,191.507 44.0218,50.343 105.023,75.5145 183.004,75.5145 48.6706,0 92.012,-5.66926 129.996,-17.0078l-11.9905 -106.015z"
           id="path1217" /></glyph><glyph
         unicode="b"
         horiz-adv-x="611"
         id="glyph1223"><path
           d="M321.503 92.012c39.4864,0 68.3429,16.9794 86.3428,50.995 18.1416,33.9872 27.1557,72.6515 27.1557,115.993 0,43.9934 -8.50388,82.3459 -25.6817,115.001 -16.9794,32.6549 -45.6659,49.0107 -85.8325,49.0107 -39.4864,0 -69.4767,-16.8377 -89.8294,-50.5131 -20.4944,-33.6754 -30.6707,-71.4893 -30.6707,-113.498 0,-43.9934 9.35427,-82.8278 28.1762,-116.503 18.6802,-33.6754 48.8406,-50.4847 90.3396,-50.4847zm-252.509 658.002l133.993 0 0 -301.009c20.0125,25.3416 42.5194,44.6737 67.5208,57.9965 25.0014,13.3228 54.4815,20.0125 88.4971,20.0125 73.9838,0 128.494,-25.0014 163.501,-75.0043 34.9793,-50.0028 52.4973,-114.349 52.4973,-193.01 0,-78.6609 -17.518,-143.489 -52.4973,-194.512 -35.0077,-50.995 -89.5175,-76.4783 -163.501,-76.4783 -32.0029,0 -61.6815,5.81099 -89.0073,17.4897 -27.3258,11.6787 -50.343,30.8408 -68.9948,57.5146l-2.01259 -63.0138 -129.996 0 0 750.014z"
           id="path1221" /></glyph><glyph
         unicode="a"
         horiz-adv-x="556"
         id="glyph1227"><path
           d="M92.012 488.01c56.6642,25.9935 116.333,39.0045 178.978,39.0045 78.6893,0 135.353,-17.0078 170.021,-51.0233 34.6675,-33.9872 51.9871,-89.3191 51.9871,-165.996l0 -65.9901 0 -129.004 7.99365 -115.001 -118.006 0c-2.66455,13.3228 -4.30863,26.5038 -4.98894,39.4864 -0.651964,13.0109 -0.99212,25.5117 -0.99212,37.5021 -16.0156,-27.9778 -38.8344,-49.8328 -68.513,-65.4799 -29.6502,-15.6755 -60.491,-23.4991 -92.4939,-23.4991 -48.6706,0 -90.8215,13.6629 -126.509,40.9887 -35.6596,27.3258 -53.4894,64.6579 -53.4894,111.996 0,36.6801 7.82357,67.0106 23.4991,90.9916 15.6755,24.0093 35.9998,42.1793 61.0012,54.5099 25.0014,12.3306 52.6674,20.6644 82.9979,25.0014 30.3305,4.33698 61.5114,6.4913 93.5144,6.4913l73.9838 0c0,40.0249 -9.15585,68.513 -27.4959,85.5207 -18.34,16.9794 -47.8202,25.4833 -88.4971,25.4833 -28.0061,0 -55.502,-4.81887 -82.516,-14.4849 -26.9857,-9.66608 -52.4973,-23.4991 -76.4783,-41.499l-3.99683 115.001zm156.982 -402.007c20.0125,0 37.8423,3.99683 53.5178,11.9905 15.6471,7.99365 28.8282,19.0204 39.4864,32.9951 10.6582,14.0031 18.17,30.0187 22.5069,48.0186 4.33698,17.9999 6.4913,37.6722 6.4913,58.9886l-57.9965 0c-42.0092,0 -77.3286,-6.00941 -105.987,-17.9999 -28.6864,-11.9905 -43.0013,-35.6596 -43.0013,-71.0074 0,-21.3164 7.6535,-37.162 22.9888,-47.48 15.3353,-10.3464 35.9998,-15.5054 61.9933,-15.5054z"
           id="path1225" /></glyph><glyph
         unicode="`"
         horiz-adv-x="277"
         id="glyph1231"><path
           d="M248.994 585.01l-82.9979 0 -136.998 145.983 136.998 0 82.9979 -145.983z"
           id="path1229" /></glyph><glyph
         unicode=""
         horiz-adv-x="780"
         id="glyph1235"><path
           d="M47.9902 0l0 780.997 685.016 0 0 -780.997 -685.016 0zm636.998 47.9902l0 685.016 -588.979 0 0 -685.016 588.979 0z"
           id="path1233" /></glyph><glyph
         unicode="~"
         horiz-adv-x="600"
         id="glyph1239"><path
           d="M68.9948 254.011c13.3511,25.9935 29.5085,47.1682 48.5005,63.4957 18.992,16.3275 43.1714,24.4912 72.5098,24.4912 23.329,0 43.1714,-2.83463 59.4988,-8.50388 16.3275,-5.49918 33.1651,-13.3228 50.4847,-23.1589 17.3479,-10.0062 35.5179,-19.5022 54.5099,-28.6581 18.992,-9.18419 38.1541,-13.6629 57.5146,-13.6629 15.307,0 29.14,6.4913 41.499,19.4739 12.3306,13.0109 26.1636,31.1809 41.499,54.5099l35.9998 -86.0026c-15.3353,-27.1557 -32.3431,-49.3225 -51.0233,-66.3303 -18.6519,-17.1778 -39.9966,-25.6534 -63.9775,-25.6534 -21.9967,0 -40.5068,2.83463 -55.502,8.47554 -14.9952,5.49918 -35.5179,15.5054 -61.5114,29.5085 -25.9935,14.1731 -46.8281,23.6691 -62.5035,28.6581 -15.6471,4.84721 -30.8124,7.34169 -45.4958,7.34169 -20.6644,0 -37.8423,-6.83145 -51.5052,-20.4944 -13.6629,-13.833 -25.1715,-31.6628 -34.4974,-53.4894l-35.9998 89.9994z"
           id="path1237" /></glyph><glyph
         unicode="}"
         horiz-adv-x="333"
         id="glyph1243"><path
           d="M315.012 265.009c-22.0251,0 -41.1871,-7.85192 -57.5146,-23.4991 -16.3275,-15.6755 -24.4912,-41.1871 -24.4912,-76.5066l0 -169.993c0,-44.0218 -14.3432,-77.4987 -43.0013,-100.516 -28.6581,-22.9888 -63.6657,-34.4974 -104.995,-34.4974l-75.0043 0 0 79.9932 44.9855 0c20.0125,0 33.3352,5.83933 39.9966,17.518 6.68972,11.6503 10.0062,30.1604 10.0062,55.502l0 165.996c0,47.3383 10.9984,79.8231 32.9951,97.4829 21.9967,17.6881 48.3304,27.836 79.0011,30.5006 -29.9904,3.99683 -56.154,15.0235 -78.4908,33.0234 -22.3369,17.9999 -33.5053,47.9902 -33.5053,89.9994l0 172.997c0,25.9935 -3.17478,44.6454 -9.496,55.9839 -6.32122,11.3385 -19.8424,17.0078 -40.5068,17.0078l-44.9855 0 0 79.9932 75.0043 0c41.3289,0 76.3365,-11.5086 104.995,-34.4974 28.6581,-22.9888 43.0013,-56.4941 43.0013,-100.488l0 -177.023c0,-32.6549 8.16373,-56.3241 24.4912,-70.9791 16.3275,-14.6834 35.4895,-21.9967 57.5146,-21.9967l0 -86.0026z"
           id="path1241" /></glyph><glyph
         unicode="|"
         horiz-adv-x="222"
         id="glyph1247"><path
           d="M58.9886 750.014l104.002 0 0 -762.005 -104.002 0 0 762.005z"
           id="path1245" /></glyph><glyph
         unicode="{"
         horiz-adv-x="333"
         id="glyph1251"><path
           d="M17.9999 351.012c22.677,0 42.0092,7.14326 57.9965,21.4865 16.0156,14.3432 24.0093,38.1541 24.0093,71.4893l0 177.023c0,43.3131 14.8251,76.6483 44.5037,99.9773 29.6502,23.3573 64.1476,35.0077 103.492,35.0077l75.0043 0 0 -79.9932 -45.0139 0c-19.9841,0 -33.3352,-5.83933 -39.9966,-17.4897 -6.66138,-11.6787 -10.0062,-30.1888 -10.0062,-55.502l0 -172.997c0,-41.3572 -11.4802,-71.1775 -34.4974,-89.5175 -22.9888,-18.34 -48.8123,-28.8282 -77.4987,-31.4927 32.0029,-4.67714 58.6768,-15.5054 79.9932,-32.5132 21.3447,-16.9794 32.0029,-49.4926 32.0029,-97.4829l0 -165.996c0,-26.6738 3.17478,-45.5241 9.52435,-56.5225 6.32122,-10.9984 19.814,-16.4975 40.4785,-16.4975l45.0139 0 0 -79.9932 -75.0043 0c-40.6769,0 -75.5145,11.6787 -104.513,35.0077 -28.9982,23.329 -43.4832,56.6642 -43.4832,100.006l0 169.993c0,35.3195 -8.16373,60.8311 -24.5195,76.5066 -16.3275,15.6471 -35.4895,23.4991 -57.4863,23.4991l0 86.0026z"
           id="path1249" /></glyph><glyph
         unicode="z"
         horiz-adv-x="499"
         id="glyph1255"><path
           d="M46.9981 514.995l407.988 0 0 -109.984 -255.995 -301.009 265.009 0 0 -104.002 -428 0 0 108.991 261.013 302.001 -250.014 0 0 104.002z"
           id="path1253" /></glyph><glyph
         unicode="y"
         horiz-adv-x="556"
         id="glyph1259"><path
           d="M283.009 139.01l125.999 375.985 136.005 0 -193.01 -510.998c-22.677,-60.661 -39.9966,-103.492 -52.0154,-128.494 -11.9905,-25.0014 -30.8124,-47.5084 -56.4941,-67.4925 -25.6534,-20.0125 -60.8311,-30.0187 -105.505,-30.0187 -31.3226,0 -62.9854,4.67714 -94.9884,14.0031l8.98577 99.0135c17.3479,-6.00941 40.3368,-9.01412 69.0232,-9.01412 27.3258,0 48.6706,8.33381 63.9775,25.0014 15.3353,16.6676 23.0172,39.0045 23.0172,67.0106l-197.007 540.989 147.996 0 124.015 -375.985z"
           id="path1257" /></glyph><glyph
         unicode="x"
         horiz-adv-x="556"
         id="glyph1263"><path
           d="M27.014 514.995l157.662 0 100.828 -167.668 99.4954 167.668 142.015 0 -154.005 -244.997 173.989 -269.998 -159.986 0 -115.001 191.989 -116.021 -191.989 -146.975 0 176.994 269.998 -158.994 244.997z"
           id="path1261" /></glyph><glyph
         unicode="w"
         horiz-adv-x="888"
         id="glyph1267"><path
           d="M10.9984 514.995l142.015 0 113.64 -380.152 106.355 380.152 155.99 0 112.336 -379.84 108.68 379.84 127.983 0 -158.002 -514.995 -158.002 0 -111.996 392.993 -111.996 -392.993 -153.013 0 -173.989 514.995z"
           id="path1265" /></glyph><glyph
         unicode="v"
         horiz-adv-x="556"
         id="glyph1271"><path
           d="M11.9905 514.995l143.999 0 128.012 -374.993 125.999 374.993 133.993 0 -190.005 -514.995 -151.001 0 -190.997 514.995z"
           id="path1269" /></glyph><glyph
         unicode="u"
         horiz-adv-x="611"
         id="glyph1275"><path
           d="M542.009 0l-127.02 0 0 69.987c-22.6487,-25.9935 -48.1603,-46.1477 -76.4783,-60.491 -28.3463,-14.3432 -59.839,-21.4865 -94.5065,-21.4865 -58.6768,0 -102.5,18.3117 -131.498,54.9918 -28.9982,36.6517 -43.5115,85.6625 -43.5115,147.004l0 324.99 133.993 0 0 -274.987c0,-45.354 5.01729,-81.3538 15.0235,-107.999 9.97789,-26.6738 33.9872,-39.9966 71.9995,-39.9966 43.3131,0 73.8137,17.6597 91.5018,52.9792 17.6597,35.3478 26.4754,74.6641 26.4754,118.006l0 251.998 134.021 0 0 -514.995z"
           id="path1273" /></glyph><glyph
         unicode="t"
         horiz-adv-x="388"
         id="glyph1279"><path
           d="M112.988 417.002l-98.9852 0 0 97.9931 98.9852 0 0 103.01 134.021 43.0013 0 -146.012 118.998 0 0 -97.9931 -118.998 0 0 -240.008c0,-25.9935 4.47871,-46.658 13.4928,-61.9933 8.98577,-15.3353 25.5117,-22.9888 49.4926,-22.9888 25.9935,0 46.3462,4.64879 61.0012,13.9747l3.99683 -105.987c-28.0061,-7.99365 -61.0012,-11.9905 -98.9852,-11.9905 -52.0154,0 -92.1821,14.8251 -120.5,44.5037 -28.3463,29.6502 -42.5194,70.4972 -42.5194,122.484l0 262.005z"
           id="path1277" /></glyph><glyph
         unicode="s"
         horiz-adv-x="443"
         id="glyph1283"><path
           d="M374.993 406.996c-21.3164,7.34169 -40.9887,12.8409 -58.9886,16.4975 -17.9999,3.68502 -38.3242,5.49918 -61.0012,5.49918 -21.3447,0 -39.8265,-4.47871 -55.502,-13.4928 -15.6755,-8.98577 -23.4991,-23.4991 -23.4991,-43.5115 0,-20.6644 24.6613,-39.1462 74.0121,-55.502 49.3225,-16.3275 88.1569,-33.9872 116.475,-52.9792 28.3463,-19.0204 42.5194,-54.85 42.5194,-107.517 0,-55.9839 -20.8345,-97.9931 -62.5035,-125.999 -41.669,-27.9778 -92.8341,-41.9808 -153.495,-41.9808 -24.0093,0 -48.6706,1.81416 -74.0121,5.49918 -25.3416,3.65667 -51.3351,9.15585 -78.009,16.4975l8.022 109.984c21.9967,-11.3102 43.6533,-19.814 64.998,-25.4833 21.3164,-5.66926 43.6533,-8.50388 66.9823,-8.50388 22.677,0 43.0013,4.81887 61.0012,14.4849 17.9999,9.66608 27.014,25.8518 27.014,48.5005 0,26.6738 -38.8344,52.5257 -116.503,77.4987 -77.6688,25.0014 -116.503,71.8578 -116.503,140.513 0,51.9871 19.5022,91.6719 58.5067,118.998 39.0045,27.3258 86.8246,41.0171 143.489,41.0171 28.6581,0 52.0154,-1.50235 70.0153,-4.50706 17.9999,-3.00471 43.3131,-7.85192 75.9964,-14.5133l-9.01412 -100.998z"
           id="path1281" /></glyph><glyph
         unicode="r"
         horiz-adv-x="388"
         id="glyph1287"><path
           d="M71.9995 514.995l118.998 0 0 -116.985c4.67714,28.6581 20.4944,57.3162 47.5084,86.0026 26.9857,28.6581 58.8185,43.0013 95.4986,43.0013 6.66138,0 13.1527,-0.170078 19.5022,-0.510233 6.32122,-0.340155 13.4928,-1.50235 21.4865,-3.51494l0 -134.985c-5.3291,3.31651 -13.4928,6.00941 -24.4912,7.99365 -10.9984,2.01259 -22.8471,3.00471 -35.4895,3.00471 -36.6801,0 -64.0059,-15.5054 -82.0058,-46.5162 -17.9999,-30.9825 -27.014,-85.4924 -27.014,-163.473l0 -189.013 -133.993 0 0 514.995z"
           id="path1285" /></glyph><glyph
         unicode="q"
         horiz-adv-x="611"
         id="glyph1291"><path
           d="M407.988 58.9886c-23.329,-27.3258 -46.8281,-45.9777 -70.4972,-55.9839 -23.6691,-10.0062 -51.165,-14.9952 -82.4877,-14.9952 -75.3444,0 -130.676,25.4833 -165.996,76.4783 -35.3478,51.0233 -53.0075,115.851 -53.0075,194.512 0,78.009 17.6597,142.157 53.0075,192.5 35.3195,50.343 90.6514,75.5145 165.996,75.5145 37.332,0 68.4846,-7.17161 93.486,-21.5148 25.0014,-14.3432 46.1761,-35.4895 63.524,-63.4957l1.98424 72.9917 128.012 0 0 -724.984 -134.021 0 0 268.978zm-231.986 200.011c0,-43.9934 8.84404,-82.8278 26.6738,-116.503 17.6597,-33.6754 46.658,-50.4847 86.8246,-50.4847 40.8186,0 70.8373,16.9794 89.8294,50.995 19.1621,33.9872 28.6581,72.6515 28.6581,115.993 0,42.6611 -9.97789,80.6735 -30.1604,114.009 -19.9841,33.3352 -50.1729,50.0028 -90.3396,50.0028 -39.4864,0 -67.9744,-16.6676 -85.3223,-50.0028 -17.4897,-33.3352 -26.1636,-71.3476 -26.1636,-114.009z"
           id="path1289" /></glyph><glyph
         unicode="p"
         horiz-adv-x="611"
         id="glyph1295"><path
           d="M68.9948 514.995l128.012 0 0 -72.9917c16.6676,26.6738 38.3242,47.5084 64.998,62.5035 26.6738,14.9952 58.9886,22.5069 97.001,22.5069 73.9838,0 128.494,-25.0014 163.501,-75.0043 34.9793,-50.0028 52.4973,-114.349 52.4973,-193.01 0,-78.009 -17.6597,-142.667 -53.0075,-194.002 -35.3195,-51.3351 -90.6514,-76.9885 -165.996,-76.9885 -30.6707,0 -57.8264,4.98894 -81.4955,14.9952 -23.6691,10.0062 -46.8281,28.6581 -69.5051,55.9839l-2.01259 -268.978 -133.993 0 0 724.984zm133.993 -255.995c0,-43.9934 9.35427,-82.8278 28.1762,-116.503 18.6802,-33.6754 48.8406,-50.4847 90.3396,-50.4847 39.4864,0 68.3429,16.9794 86.3428,50.995 18.1416,33.9872 27.1557,72.6515 27.1557,115.993 0,43.9934 -8.50388,82.3459 -25.6817,115.001 -16.9794,32.6549 -45.6659,49.0107 -85.8325,49.0107 -39.4864,0 -69.4767,-16.8377 -89.8294,-50.5131 -20.4944,-33.6754 -30.6707,-71.4893 -30.6707,-113.498z"
           id="path1293" /></glyph><glyph
         unicode=""
         horiz-adv-x="780"
         id="glyph1299"><path
           d="M47.9902 0l0 780.997 685.016 0 0 -780.997 -685.016 0zm636.998 47.9902l0 685.016 -588.979 0 0 -685.016 588.979 0z"
           id="path1297" /></glyph><glyph
         unicode=""
         horiz-adv-x="780"
         id="glyph1303"><path
           d="M47.9902 0l0 780.997 685.016 0 0 -780.997 -685.016 0zm636.998 47.9902l0 685.016 -588.979 0 0 -685.016 588.979 0z"
           id="path1301" /></glyph><glyph
         unicode=""
         horiz-adv-x="780"
         id="glyph1307"><path
           d="M47.9902 0l0 780.997 685.016 0 0 -780.997 -685.016 0zm636.998 47.9902l0 685.016 -588.979 0 0 -685.016 588.979 0z"
           id="path1305" /></glyph><glyph
         unicode=""
         horiz-adv-x="780"
         id="glyph1311"><path
           d="M47.9902 0l0 780.997 685.016 0 0 -780.997 -685.016 0zm636.998 47.9902l0 685.016 -588.979 0 0 -685.016 588.979 0z"
           id="path1309" /></glyph><glyph
         unicode=""
         horiz-adv-x="780"
         id="glyph1315"><path
           d="M47.9902 0l0 780.997 685.016 0 0 -780.997 -685.016 0zm636.998 47.9902l0 685.016 -588.979 0 0 -685.016 588.979 0z"
           id="path1313" /></glyph><glyph
         unicode=""
         horiz-adv-x="780"
         id="glyph1319"><path
           d="M47.9902 0l0 780.997 685.016 0 0 -780.997 -685.016 0zm636.998 47.9902l0 685.016 -588.979 0 0 -685.016 588.979 0z"
           id="path1317" /></glyph><glyph
         unicode=""
         horiz-adv-x="780"
         id="glyph1323"><path
           d="M47.9902 0l0 780.997 685.016 0 0 -780.997 -685.016 0zm636.998 47.9902l0 685.016 -588.979 0 0 -685.016 588.979 0z"
           id="path1321" /></glyph><glyph
         unicode=""
         horiz-adv-x="780"
         id="glyph1327"><path
           d="M47.9902 0l0 780.997 685.016 0 0 -780.997 -685.016 0zm636.998 47.9902l0 685.016 -588.979 0 0 -685.016 588.979 0z"
           id="path1325" /></glyph><glyph
         unicode=""
         horiz-adv-x="780"
         id="glyph1331"><path
           d="M47.9902 0l0 780.997 685.016 0 0 -780.997 -685.016 0zm636.998 47.9902l0 685.016 -588.979 0 0 -685.016 588.979 0z"
           id="path1329" /></glyph><glyph
         unicode=""
         horiz-adv-x="780"
         id="glyph1335"><path
           d="M47.9902 0l0 780.997 685.016 0 0 -780.997 -685.016 0zm636.998 47.9902l0 685.016 -588.979 0 0 -685.016 588.979 0z"
           id="path1333" /></glyph><glyph
         unicode=""
         horiz-adv-x="780"
         id="glyph1339"><path
           d="M47.9902 0l0 780.997 685.016 0 0 -780.997 -685.016 0zm636.998 47.9902l0 685.016 -588.979 0 0 -685.016 588.979 0z"
           id="path1337" /></glyph><glyph
         unicode=""
         horiz-adv-x="780"
         id="glyph1343"><path
           d="M47.9902 0l0 780.997 685.016 0 0 -780.997 -685.016 0zm636.998 47.9902l0 685.016 -588.979 0 0 -685.016 588.979 0z"
           id="path1341" /></glyph><glyph
         unicode=""
         horiz-adv-x="780"
         id="glyph1347"><path
           d="M47.9902 0l0 780.997 685.016 0 0 -780.997 -685.016 0zm636.998 47.9902l0 685.016 -588.979 0 0 -685.016 588.979 0z"
           id="path1345" /></glyph><glyph
         unicode=""
         horiz-adv-x="780"
         id="glyph1351"><path
           d="M47.9902 0l0 780.997 685.016 0 0 -780.997 -685.016 0zm636.998 47.9902l0 685.016 -588.979 0 0 -685.016 588.979 0z"
           id="path1349" /></glyph><glyph
         unicode=""
         horiz-adv-x="780"
         id="glyph1355"><path
           d="M47.9902 0l0 780.997 685.016 0 0 -780.997 -685.016 0zm636.998 47.9902l0 685.016 -588.979 0 0 -685.016 588.979 0z"
           id="path1353" /></glyph><glyph
         unicode=""
         horiz-adv-x="780"
         id="glyph1359"><path
           d="M47.9902 0l0 780.997 685.016 0 0 -780.997 -685.016 0zm636.998 47.9902l0 685.016 -588.979 0 0 -685.016 588.979 0z"
           id="path1357" /></glyph><glyph
         unicode=""
         horiz-adv-x="780"
         id="glyph1363"><path
           d="M47.9902 0l0 780.997 685.016 0 0 -780.997 -685.016 0zm636.998 47.9902l0 685.016 -588.979 0 0 -685.016 588.979 0z"
           id="path1361" /></glyph><glyph
         unicode=""
         horiz-adv-x="780"
         id="glyph1367"><path
           d="M47.9902 0l0 780.997 685.016 0 0 -780.997 -685.016 0zm636.998 47.9902l0 685.016 -588.979 0 0 -685.016 588.979 0z"
           id="path1365" /></glyph><glyph
         unicode=""
         horiz-adv-x="780"
         id="glyph1371"><path
           d="M47.9902 0l0 780.997 685.016 0 0 -780.997 -685.016 0zm636.998 47.9902l0 685.016 -588.979 0 0 -685.016 588.979 0z"
           id="path1369" /></glyph><glyph
         unicode=""
         horiz-adv-x="780"
         id="glyph1375"><path
           d="M47.9902 0l0 780.997 685.016 0 0 -780.997 -685.016 0zm636.998 47.9902l0 685.016 -588.979 0 0 -685.016 588.979 0z"
           id="path1373" /></glyph><glyph
         unicode=""
         horiz-adv-x="780"
         id="glyph1379"><path
           d="M47.9902 0l0 780.997 685.016 0 0 -780.997 -685.016 0zm636.998 47.9902l0 685.016 -588.979 0 0 -685.016 588.979 0z"
           id="path1377" /></glyph><glyph
         unicode=""
         horiz-adv-x="780"
         id="glyph1383"><path
           d="M47.9902 0l0 780.997 685.016 0 0 -780.997 -685.016 0zm636.998 47.9902l0 685.016 -588.979 0 0 -685.016 588.979 0z"
           id="path1381" /></glyph><glyph
         unicode=""
         horiz-adv-x="780"
         id="glyph1387"><path
           d="M47.9902 0l0 780.997 685.016 0 0 -780.997 -685.016 0zm636.998 47.9902l0 685.016 -588.979 0 0 -685.016 588.979 0z"
           id="path1385" /></glyph><glyph
         unicode=""
         horiz-adv-x="780"
         id="glyph1391"><path
           d="M47.9902 0l0 780.997 685.016 0 0 -780.997 -685.016 0zm636.998 47.9902l0 685.016 -588.979 0 0 -685.016 588.979 0z"
           id="path1389" /></glyph><glyph
         unicode=""
         horiz-adv-x="780"
         id="glyph1395"><path
           d="M47.9902 0l0 780.997 685.016 0 0 -780.997 -685.016 0zm636.998 47.9902l0 685.016 -588.979 0 0 -685.016 588.979 0z"
           id="path1393" /></glyph><glyph
         unicode=""
         horiz-adv-x="780"
         id="glyph1399"><path
           d="M47.9902 0l0 780.997 685.016 0 0 -780.997 -685.016 0zm636.998 47.9902l0 685.016 -588.979 0 0 -685.016 588.979 0z"
           id="path1397" /></glyph><glyph
         unicode=""
         horiz-adv-x="780"
         id="glyph1403"><path
           d="M47.9902 0l0 780.997 685.016 0 0 -780.997 -685.016 0zm636.998 47.9902l0 685.016 -588.979 0 0 -685.016 588.979 0z"
           id="path1401" /></glyph><glyph
         unicode=""
         horiz-adv-x="780"
         id="glyph1407"><path
           d="M47.9902 0l0 780.997 685.016 0 0 -780.997 -685.016 0zm636.998 47.9902l0 685.016 -588.979 0 0 -685.016 588.979 0z"
           id="path1405" /></glyph><glyph
         unicode=""
         horiz-adv-x="780"
         id="glyph1411"><path
           d="M47.9902 0l0 780.997 685.016 0 0 -780.997 -685.016 0zm636.998 47.9902l0 685.016 -588.979 0 0 -685.016 588.979 0z"
           id="path1409" /></glyph><glyph
         unicode=""
         horiz-adv-x="780"
         id="glyph1415"><path
           d="M47.9902 0l0 780.997 685.016 0 0 -780.997 -685.016 0zm636.998 47.9902l0 685.016 -588.979 0 0 -685.016 588.979 0z"
           id="path1413" /></glyph><glyph
         unicode=""
         horiz-adv-x="780"
         id="glyph1419"><path
           d="M47.9902 0l0 780.997 685.016 0 0 -780.997 -685.016 0zm636.998 47.9902l0 685.016 -588.979 0 0 -685.016 588.979 0z"
           id="path1417" /></glyph></font>
</defs>
</svg>
